(Power Metal) ShadowQuest - Gallows Of Eden - 2020 [FLAC, image +.cue, lossless]

Reply to topic
DL-List and Torrent activity
Size:  417 MB   |    Registered:  11 days   |    Completed:  1 time
Seeders:  2  [  0 KB/s  ]   Leechers:  17  [  0 KB/s  ]   Show peers in full details
 
     
 
 
Author Message

sergej644 ®

Gender: Male

Longevity: 7 years 2 months

Posts: 686

Location: Klaipeda

Post 25-Mar-2020 23:33

[Quote]

-ShadowQuest - Gallows Of Eden--
Год издания: 2020
Страна: Sweden
Жанр: Power Metal
Продолжительность: 00:50:55-Лейбл издания: Garelock Records
Страна-выпуска диска: Sweden
Номер по каталогу: SE4RN19001-Формат: FLAC
Битрейт аудио: Lossless
Тип рипа: image +.cue
Наличие сканов в содержимом раздачи: да
-

Трэклист


01. The Avenger (3:56)
02. Titans Of War (3:50)
03. Gallows Of Eden (5:58)
04. Guardian Of Heaven (6:19)
05. Armageddon (4:07)
06. Dr. Midnight (3:50)
07. Reborn (7:36)
08. Into The Unknown (4:13)
09. Caught In A Flame (4:42)
10. Our Kinsmen Awaits (6:24)
-

Лог создания рипа

Exact Audio Copy V1.3 from 2. September 2016
Отчёт EAC об извлечении, выполненном 18. марта 2020, 18:06
ShadowQuest / Gallows Of Eden
Дисковод: ASUS    DRW-1612BL   Adapter: 3  ID: 1
Режим чтения                 : Достоверность
Использование точного потока : Да
Отключение кэша аудио        : Да
Использование указателей C2  : Нет
Коррекция смещения при чтении                     : 6
Способность читать области Lead-in и Lead-out     : Нет
Заполнение пропущенных сэмплов тишиной            : Да
Удаление блоков с тишиной в начале и конце        : Нет
При вычислениях CRC использовались нулевые сэмплы : Да
Интерфейс                                         : Установленный внешний ASPI-интерфейс
Выходной формат          : Пользовательский кодировщик
Выбранный битрейт        : 128 kBit/s
Качество                 : Высокий
Добавление ID3-тега      : Нет
Утилита сжатия           : C:\Program Files\Exact Audio Copy\Flac\flac.exe
Дополнительные параметры : -V -8 -T "Date=%year%" -T "Genre=%genre%" %source%
TOC извлечённого CD
     Трек |   Старт  | Длительность | Начальный сектор | Конечный сектор
    ---------------------------------------------------------------------
       1  |  0:00.00 |    3:55.68   |           0      |      17692
       2  |  3:55.68 |    3:50.05   |       17693      |      34947
       3  |  7:45.73 |    5:57.74   |       34948      |      61796
       4  | 13:43.72 |    6:18.44   |       61797      |      90190
       5  | 20:02.41 |    4:06.63   |       90191      |     108703
       6  | 24:09.29 |    3:49.64   |      108704      |     125942
       7  | 27:59.18 |    7:36.18   |      125943      |     160160
       8  | 35:35.36 |    4:13.02   |      160161      |     179137
       9  | 39:48.38 |    4:42.08   |      179138      |     200295
      10  | 44:30.46 |    6:24.29   |      200296      |     229124
Характеристики диапазона извлечения и сообщения об ошибках
Выбранный диапазон
     Имя файла D:\ShadowQuest - Gallows Of Eden.wav
     Пиковый уровень 100.0 %
     Скорость извлечения 7.5 X
     Качество диапазона 100.0 %
     CRC теста BDB2B75C
     CRC копии BDB2B75C
     Копирование... OK
Ошибок не произошло
AccurateRip: сводка
Трек  1  отсутствует в базе данных
Трек  2  отсутствует в базе данных
Трек  3  отсутствует в базе данных
Трек  4  отсутствует в базе данных
Трек  5  отсутствует в базе данных
Трек  6  отсутствует в базе данных
Трек  7  отсутствует в базе данных
Трек  8  отсутствует в базе данных
Трек  9  отсутствует в базе данных
Трек 10  отсутствует в базе данных
Ни одного трека нет в базе AccurateRip
Конец отчёта

Индексная карта (non-compilant .cue)

REM GENRE "Heavy Metal"
REM DATE 2020
REM DISCID 7C0BEF0A
REM COMMENT "ExactAudioCopy v1.3"
PERFORMER "ShadowQuest"
TITLE "Gallows Of Eden"
REM COMPOSER ""
FILE "ShadowQuest - Gallows Of Eden.flac" WAVE
  TRACK 01 AUDIO
    TITLE "The Avenger"
    PERFORMER "ShadowQuest"
    REM COMPOSER ""
    INDEX 01 00:00:00
  TRACK 02 AUDIO
    TITLE "Titans Of War"
    PERFORMER "ShadowQuest"
    REM COMPOSER ""
    INDEX 01 03:55:68
  TRACK 03 AUDIO
    TITLE "Gallows Of Eden"
    PERFORMER "ShadowQuest"
    REM COMPOSER ""
    INDEX 01 07:45:73
  TRACK 04 AUDIO
    TITLE "Guardian Of Heaven"
    PERFORMER "ShadowQuest"
    REM COMPOSER ""
    INDEX 01 13:43:72
  TRACK 05 AUDIO
    TITLE "Armageddon"
    PERFORMER "ShadowQuest"
    REM COMPOSER ""
    INDEX 01 20:02:41
  TRACK 06 AUDIO
    TITLE "Dr. Midnight"
    PERFORMER "ShadowQuest"
    REM COMPOSER ""
    INDEX 01 24:09:29
  TRACK 07 AUDIO
    TITLE "Reborn"
    PERFORMER "ShadowQuest"
    REM COMPOSER ""
    INDEX 01 27:59:18
  TRACK 08 AUDIO
    TITLE "Into The Unknown"
    PERFORMER "ShadowQuest"
    REM COMPOSER ""
    INDEX 01 35:35:36
  TRACK 09 AUDIO
    TITLE "Caught In A Flame"
    PERFORMER "ShadowQuest"
    REM COMPOSER ""
    INDEX 01 39:48:38
  TRACK 10 AUDIO
    TITLE "Our Kinsmen Awaits"
    PERFORMER "ShadowQuest"
    REM COMPOSER ""
    INDEX 01 44:30:46
-

для ознакомления:

https://www.youtube.com/watch?v=U7g1RvZub9s
--
[filmgrad.ru].t145848.torrent 
Torrent: Registered [ 2020-03-25 23:33 ] · A50E041D45D577C51FDF2098FF2551646A726212

Download .torrent

Download

34 KB

Status: checked
Completed: 1 times
Size: 417 MB
Оценка:  5 (Голосов: 1)
Поблагодарили: 1  Спасибо   (список)
terms.php
[Profile] [PM]
Display posts:    
Reply to topic

Current time is: 06-Apr 14:44

All times are UTC + 3



You cannot post new topics in this forum
You cannot reply to topics in this forum
You cannot edit your posts in this forum
You cannot delete your posts in this forum
You cannot vote in polls in this forum
You cannot attach files in this forum
You can download files in this forum