Смертельный спуск / Road to Red (2020) WEB-DLRip [H.264/720p-LQ] [MVO] [AD]

Reply to topic
DL-List and Torrent activity
Size:  4.92 GB   |    Registered:  5 days   |    Completed:  0 times
Seeders:  3  [  0 KB/s  ]   Leechers:  42  [  0 KB/s  ]   Show peers in full details
 
     
 
 
Author Message

dybrik13 ®

Gender: Male

Longevity: 1 year 2 months

Posts: 5201

Location: Киев

Post 25-Mar-2020 19:18

[Quote]

Смертельный спуск / Road to Red- Производство: США / Worldwide Artists
Жанр: Боевик, триллер, приключения
Режиссер: Тито Да Коста
Актеры: Шон Грэй, Крис Бласман, Рени Дориан, Майкл Буффо, Аманда Уинг, Мэтт Ласки, Майкл Саад, Бадди Дэниелс Фридман, Холт Боггс, Мэтттью Пратер-Пятеро лучших друзей отправляются в дорожное приключение, которое превращается в эпическую битву за выживание.
Дата мировой премьеры: 3 января 2020
Продолжительность: 02:01:43
Качество видео: WEB-DLRip
Перевод: Многоголосый закадровый, профессиональный (Синема УС)
Субтитры: Отсутствуют
Видео: AVC/H.264, 1280x544, ~5290 Kbps
Аудио: AC-3, 2 ch, 384 Kbps

MediaInfo:

Общее
Полное имя : D:\NNM\Смертельный спуск\Road.to.Red.2020.WEB-DLRip.720p-LQ.mkv
Формат : Matroska
Версия формата : Version 2
Размер файла : 4,92 Гбайт
Продолжительность : 2 ч. 1 м.
Режим общего битрейта : Переменный
Общий поток : 5790 Кбит/сек
Программа кодирования : libmatroska 1.4.1
Библиотека кодирования : SolveigMM Matroska Muxer Version 1.0.1502.31
Видео
Идентификатор : 1
Формат : AVC
Формат/Информация : Advanced Video Codec
Профиль формата : High@L4.1
Настройки формата : CABAC / 4 Ref Frames
Параметр CABAC формата : Да
Параметр RefFrames формата : 4 кадра
Идентификатор кодека : V_MPEG4/ISO/AVC
Продолжительность : 2 ч. 1 м.
Вид битрейта : Переменный
Битрейт : 5290 Кбит/сек
Номинальный битрейт : 6000 Кбит/сек
Максимальный битрейт : 6000 Кбит/сек
Ширина : 1280 пикселей
Высота : 544 пикселя
Соотношение сторон : 2,35:1
Режим частоты кадров : Постоянный
Частота кадров : 23,976 (24000/1001) кадра/сек
Стандарт вещания : Component
Цветовое пространство : YUV
Субдискретизация насыщенности : 4:2:0
Битовая глубина : 8 бит
Тип развёртки : Прогрессивная
Бит/(Пиксели*Кадры) : 0.317
Размер потока : 4,50 Гбайт (91%)
Default : Нет
Forced : Нет
Цветовой диапазон : Limited
Основные цвета : BT.709
Характеристики трансфера : BT.709
Коэффициенты матрицы : BT.709
Аудио
Идентификатор : 2
Формат : AC-3
Формат/Информация : Audio Coding 3
Коммерческое название : Dolby Digital
Идентификатор кодека : A_AC3
Продолжительность : 2 ч. 1 м.
Вид битрейта : Постоянный
Битрейт : 384 Кбит/сек
Каналы : 2 канала
ChannelLayout : L R
Частота : 48,0 КГц
Частота кадров : 31,250 кадров/сек (1536 SPF)
Метод сжатия : С потерями
Размер потока : 334 Мбайт (7%)
Язык : Russian
ServiceKind/String : Complete Main
Default : Нет
Forced : Нет
Скриншоты:
[filmgrad.ru].t145840.torrent 
Torrent: Registered [ 2020-03-25 19:18 ] · A11AC657A2C35CCCFE22D2BA5C4687656EBC870D

Download .torrent

Download

25 KB

Status: checked
Completed: 0 times
Size: 4.92 GB
Оценка:  5 (Голосов: 1)
Поблагодарили: 0  Спасибо
terms.php
[Profile] [PM]
Display posts:    
Reply to topic

Current time is: 31-Mar 08:54

All times are UTC + 3



You cannot post new topics in this forum
You cannot reply to topics in this forum
You cannot edit your posts in this forum
You cannot delete your posts in this forum
You cannot vote in polls in this forum
You cannot attach files in this forum
You can download files in this forum