(Hard & Heavy) David Reece - Cacophony of Souls - 2020 [FLAC, image +.cue, lossless]

Reply to topic
DL-List and Torrent activity
Size:  389 MB   |    Registered:  11 days   |    Completed:  0 times
Seeders:  4  [  0 KB/s  ]   Leechers:  10  [  0 KB/s  ]   Show peers in full details
 
     
 
 
Author Message

sergej644 ®

Gender: Male

Longevity: 7 years 2 months

Posts: 688

Location: Klaipeda

Post 25-Mar-2020 16:21

[Quote]

-David Reece - Cacophony of Souls--
Год издания: 2020
Страна: USA
Жанр: Hard & Heavy
Продолжительность: 00:48:01-Лейбл издания: Irond
Страна-выпуска диска: Russia
Номер по каталогу: CD 20-1968-Формат: FLAC
Битрейт аудио: Lossless
Тип рипа: image +.cue
Наличие сканов в содержимом раздачи: да
-

Трэклист


01. Chasing The Shadow (3:43)
02. Blood On Our Hands (3:17)
03. Judgement Day (3:30)
04. Collective Anaesthesia (5:22)
05. Cacophony Of Souls (3:57)
06. Another Life Another Time (4:46)
07. Metal Voice (3:26)
08. Over And Over (3:45)
09. Back In The Days (3:43)
10. A Perfect World (5:07)
11. Bleed (3:37)
12. No Disguise (3:49)
-

Лог создания рипа

Exact Audio Copy V1.5 from 20. February 2020
EAC extraction logfile from 21. March 2020, 22:36
David Reece / Cacophony Of Souls
Used drive  : ASUS    DRW-24B3ST   Adapter: 2  ID: 0
Read mode               : Secure
Utilize accurate stream : Yes
Defeat audio cache      : Yes
Make use of C2 pointers : No
Read offset correction                      : 6
Overread into Lead-In and Lead-Out          : No
Fill up missing offset samples with silence : Yes
Delete leading and trailing silent blocks   : No
Null samples used in CRC calculations       : Yes
Used interface                              : Installed external ASPI interface
Used output format              : User Defined Encoder
Selected bitrate                : 1024 kBit/s
Quality                         : High
Add ID3 tag                     : No
Command line compressor         : C:\Program Files (x86)\Exact Audio Copy\FLAC\FLAC.EXE
Additional command line options : -V -8 -T "Date=%year%" -T "Genre=%genre%" -T"COMMENT=CDRip for me-4u.com" -8 -V %source%
TOC of the extracted CD
     Track |   Start  |  Length  | Start sector | End sector
    ---------------------------------------------------------
        1  |  0:00.00 |  3:43.00 |         0    |    16724
        2  |  3:43.00 |  3:16.56 |     16725    |    31480
        3  |  6:59.56 |  3:29.63 |     31481    |    47218
        4  | 10:29.44 |  5:21.44 |     47219    |    71337
        5  | 15:51.13 |  3:56.41 |     71338    |    89078
        6  | 19:47.54 |  4:46.31 |     89079    |   110559
        7  | 24:34.10 |  3:26.30 |    110560    |   126039
        8  | 28:00.40 |  3:45.15 |    126040    |   142929
        9  | 31:45.55 |  3:43.01 |    142930    |   159655
       10  | 35:28.56 |  5:06.57 |    159656    |   182662
       11  | 40:35.38 |  3:36.71 |    182663    |   198933
       12  | 44:12.34 |  3:48.52 |    198934    |   216085
Range status and errors
Selected range
     Filename C:\David Reece - Cacophony Of Souls.wav
     Peak level 100.0 %
     Extraction speed 5.9 X
     Range quality 100.0 %
     Test CRC 7B3AF629
     Copy CRC 7B3AF629
     Copy OK
No errors occurred
AccurateRip summary
Track  1  not present in database
Track  2  not present in database
Track  3  not present in database
Track  4  not present in database
Track  5  not present in database
Track  6  not present in database
Track  7  not present in database
Track  8  not present in database
Track  9  not present in database
Track 10  not present in database
Track 11  not present in database
Track 12  not present in database
None of the tracks are present in the AccurateRip database
End of status report

Индексная карта (non-compilant .cue)

REM GENRE "Hard Rock"
REM DATE 2020
REM DISCID 9B0B410C
REM COMMENT "ExactAudioCopy v1.5"
PERFORMER "David Reece"
TITLE "Cacophony Of Souls"
REM COMPOSER "David Reece"
FILE "David Reece - Cacophony Of Souls.flac" WAVE
  TRACK 01 AUDIO
    TITLE "Chasing The Shadow"
    PERFORMER "David Reece"
    REM COMPOSER "David Reece"
    ISRC DETX21900707
    FLAGS DCP
    INDEX 01 00:00:00
  TRACK 02 AUDIO
    TITLE "Blood On Our Hands"
    PERFORMER "David Reece"
    REM COMPOSER "David Reece"
    ISRC DETX21900705
    FLAGS DCP
    INDEX 01 03:43:00
  TRACK 03 AUDIO
    TITLE "Judgement Day"
    PERFORMER "David Reece"
    REM COMPOSER "David Reece"
    ISRC DETX21900709
    FLAGS DCP
    INDEX 01 06:59:56
  TRACK 04 AUDIO
    TITLE "Collective Anaesthesia"
    PERFORMER "David Reece"
    REM COMPOSER "David Reece"
    ISRC DETX21900708
    FLAGS DCP
    INDEX 01 10:29:44
  TRACK 05 AUDIO
    TITLE "Cacophony Of Souls"
    PERFORMER "David Reece"
    REM COMPOSER "David Reece"
    ISRC DETX21900706
    FLAGS DCP
    INDEX 01 15:51:13
  TRACK 06 AUDIO
    TITLE "Another Life Another Time"
    PERFORMER "David Reece"
    REM COMPOSER "David Reece"
    ISRC DETX21900702
    FLAGS DCP
    INDEX 01 19:47:54
  TRACK 07 AUDIO
    TITLE "Metal Voice"
    PERFORMER "David Reece"
    REM COMPOSER "David Reece"
    ISRC DETX21900710
    FLAGS DCP
    INDEX 01 24:34:10
  TRACK 08 AUDIO
    TITLE "Over And Over"
    PERFORMER "David Reece"
    REM COMPOSER "David Reece"
    ISRC DETX21900712
    FLAGS DCP
    INDEX 01 28:00:40
  TRACK 09 AUDIO
    TITLE "Back In The Days"
    PERFORMER "David Reece"
    REM COMPOSER "David Reece"
    ISRC DETX21900703
    FLAGS DCP
    INDEX 01 31:45:55
  TRACK 10 AUDIO
    TITLE "A Perfect World"
    PERFORMER "David Reece"
    REM COMPOSER "David Reece"
    ISRC DETX21900701
    FLAGS DCP
    INDEX 01 35:28:56
  TRACK 11 AUDIO
    TITLE "Bleed"
    PERFORMER "David Reece"
    REM COMPOSER "David Reece"
    ISRC DETX21900704
    FLAGS DCP
    INDEX 01 40:35:38
  TRACK 12 AUDIO
    TITLE "No Disguise"
    PERFORMER "David Reece"
    REM COMPOSER "David Reece"
    ISRC DETX21900711
    FLAGS DCP
    INDEX 01 44:12:34
-

для ознакомления:

https://www.youtube.com/watch?v=USXymrnrhjQ
--
[filmgrad.ru].t145834.torrent 
Torrent: Registered [ 2020-03-25 16:21 ] · 30F622F21908A31AE31F88F74DAE3953549763E5

Download .torrent

Download

16 KB

Status: checked
Completed: 0 times
Size: 389 MB
Оценка:  5 (Голосов: 1)
Поблагодарили: 1  Спасибо   (список)
terms.php
[Profile] [PM]
Display posts:    
Reply to topic

Current time is: 06-Apr 16:00

All times are UTC + 3



You cannot post new topics in this forum
You cannot reply to topics in this forum
You cannot edit your posts in this forum
You cannot delete your posts in this forum
You cannot vote in polls in this forum
You cannot attach files in this forum
You can download files in this forum