Страшные истории, рассказанные на ночь (Ночь ужаса: радио кошмаров) / A Night of Horror: Nightmare Radio (2019) WEB-DL [H.264/1080p-LQ] [AVO]

Reply to topic
DL-List and Torrent activity
Size:  3.96 GB   |    Registered:  6 days   |    Completed:  0 times
Seeders:  516  [  0 KB/s  ]   Leechers:  27  [  0 KB/s  ]   Show peers in full details
 
     
 
 
Author Message

dybrik13 ®

Gender: Male

Longevity: 1 year 2 months

Posts: 5201

Location: Киев

Post 24-Mar-2020 21:19

[Quote]

Страшные истории, рассказанные на ночь (Ночь ужаса: радио кошмаров) / A Night of Horror: Nightmare Radio- Производство: Аргентина, Новая Зеландия, Великобритания, Black Mandala
Жанр: Ужасы
Режиссер: Оливер Парк, Джейсон Богнацки, А.Дж. Брионес
Актеры: Иэн Костелло, Мишель Костелло, Клара Ковачич, Кера О’Брайон, Джеймс Райт-Род ведет ночное радиошоу. Ему звонят слушатели и рассказывают разные паранормальные истории.
Но однажды ночью ему начинают поступать странные звонки от ребенка, который отчаянно просит его о помощи.
Поначалу Род решает, что это чей-то дурацкий розыгрыш, но позже убеждается, что это не так.
Более того, в этих звонках кроется страшная тайна, и ведущий сам скоро окажется её участником.
Дата мировой премьеры: 25 октября 2019
Дата российской премьеры: 18 июня 2020
Продолжительность: 01:44:36
Качество видео: WEB-DL
Перевод: Авторский (BadBajo)
Субтитры: Отсутствуют
Видео: AVC/H.264, 1920x802, ~4 647 Kbps
Аудио 1: AC3, 6 ch, 384 Kbps - Русский (BadBajo)
Аудио 2: AC3, 6 ch, 384 Kbps - Английски

MediaInfo:

General
Unique ID : 66323697702586717977457613670182698552 (0x31E57AC350F7840431C01D84B45E3E38)
Complete name : G:\Downloads\A.Night.Of.Horror.Nightmare.Radio\A.Night.Of.Horror.Nightmare.Radio.2019.1080p.WEB-DL.DD5.1.H264_rus_BadBajo.mkv
Format : Matroska
Format version : Version 4
File size : 3.96 GiB
Duration : 1 h 44 min
Overall bit rate : 5 417 kb/s
Movie name : A.Night.Of.Horror.Nightmare.Radio.2019.1080p.WEB-DL.DD5.1.H264_rus_BadBajo
Encoded date : UTC 2020-03-23 16:55:38
Writing application : mkvmerge v42.0.0 ('Overtime') 64-bit
Writing library : libebml v1.3.10 + libmatroska v1.5.2
Copyright : BadBajo
Cover : Yes
Attachments : cover.jpg / small_cover.jpg
Video
ID : 1
Format : AVC
Format/Info : Advanced Video Codec
Format profile : High@L4
Format settings : CABAC / 5 Ref Frames
Format settings, CABAC : Yes
Format settings, Reference : 5 frames
Codec ID : V_MPEG4/ISO/AVC
Duration : 1 h 44 min
Bit rate : 4 647 kb/s
Width : 1 920 pixels
Height : 802 pixels
Display aspect ratio : 2.40:1
Frame rate mode : Constant
Frame rate : 24.000 FPS
Color space : YUV
Chroma subsampling : 4:2:0
Bit depth : 8 bits
Scan type : Progressive
Bits/(Pixel*Frame) : 0.126
Stream size : 3.40 GiB (86%)
Title : A.Night.Of.Horror.Nightmare.Radio.2019.1080p.WEB-DL.DD5.1.H264-FGT
Language : English
Default : Yes
Forced : No
Color range : Limited
Color primaries : BT.709
Transfer characteristics : BT.709
Matrix coefficients : BT.709
Audio #1
ID : 2
Format : AC-3
Format/Info : Audio Coding 3
Commercial name : Dolby Digital
Codec ID : A_AC3
Duration : 1 h 44 min
Bit rate mode : Constant
Bit rate : 384 kb/s
Channel(s) : 6 channels
Channel layout : L R C LFE Ls Rs
Sampling rate : 48.0 kHz
Frame rate : 31.250 FPS (1536 SPF)
Compression mode : Lossy
Delay relative to video : -42 ms
Stream size : 287 MiB (7%)
Title : A.Night.Of.Horror.Nightmare.Radio.2019.1080p_rus_BadBajo
Language : Russian
Service kind : Complete Main
Default : Yes
Forced : Yes
Audio #2
ID : 3
Format : AC-3
Format/Info : Audio Coding 3
Commercial name : Dolby Digital
Codec ID : A_AC3
Duration : 1 h 44 min
Bit rate mode : Constant
Bit rate : 384 kb/s
Channel(s) : 6 channels
Channel layout : L R C LFE Ls Rs
Sampling rate : 48.0 kHz
Frame rate : 31.250 FPS (1536 SPF)
Compression mode : Lossy
Delay relative to video : -42 ms
Stream size : 287 MiB (7%)
Title : A.Night.Of.Horror.Nightmare.Radio.2019.1080p.WEB-DL.DD5.1.H264
Language : English
Service kind : Complete Main
Default : No
Forced : No
Menu
00:00:00.000 : en:1
00:16:02.000 : en:2
00:30:24.000 : en:3
00:44:59.000 : en:4
01:00:00.000 : en:5
01:15:09.000 : en:6
01:33:10.000 : en:7
Скриншоты:

Дополнительные скриншоты:

[filmgrad.ru].t145806.torrent 
Torrent: Registered [ 2020-03-24 21:19 ] · 55DCCC7FF843576FA27583183F5A88D5B80A594F

Download .torrent

Download

21 KB

Status: checked
Completed: 0 times
Size: 3.96 GB
Оценка:  5 (Голосов: 1)
Поблагодарили: 0  Спасибо
terms.php
[Profile] [PM]
Display posts:    
Reply to topic

Current time is: 31-Mar 15:14

All times are UTC + 3



You cannot post new topics in this forum
You cannot reply to topics in this forum
You cannot edit your posts in this forum
You cannot delete your posts in this forum
You cannot vote in polls in this forum
You cannot attach files in this forum
You can download files in this forum