Хорошая женщина / A Good Woman (2004) WEB-DL 1080p | P2

Reply to topic
DL-List and Torrent activity
Size:  7.32 GB   |    Registered:  6 days   |    Completed:  0 times
Seeders:  4  [  0 KB/s  ]   Leechers:  39  [  0 KB/s  ]   Show peers in full details
 
     
 
 
Author Message

STALKER ®

Gender: Male

Longevity: 6 months 8 days

Posts: 457

Post 24-Mar-2020 12:40

[Quote]

Информация о фильме
Название: Хорошая женщина
Оригинальное название: A Good Woman
Год выпуска: 2004
Выпущено: США, Испания, Италия, Великобритания, Люксембург, Beyond Films, Magic Hour Media, Thema Production
Жанр: Драма, мелодрама, комедия, экранизация
Режиссер: Майк Баркер
В ролях: Хелен Хант, Скарлетт Йоханссон, Том Уилкинсон, Стивен Кэмпбелл Мур, Марк Амберс, Милена Вукотич, Диана Хардкэсл, Роджер Хэммонд, Джон Стэндинг, Джорджиа Массетти, Шара Орано, Джейн Хау, Брюс МакГуайр, Майкл Стром, Антонио Барбаро, Валентина Д’Ува, Филиппо Санторо, Аугусто Дзукки, Даниэла Станга, Каролина Леви, Арианна Манси, Камилла Берточчи, Никола Айнер
О фильме:
Доверяйте только тем, кто умеет видеть печаль за вашей улыбкой, любовь за вашим гневом и причину вашего молчания... Но как увидеть, что именно хочет от счастливо женатого на красивой и милой девушке молодого лорда Уиндемира некая миссис Эрлинн - скандальная особа, имеющая репутацию полусодержанки и авантюристки? "У многих женщин есть прошлое, но у неё их, говорят, не меньше дюжины, и ни в одном нет причин сомневаться!" Всё светское английское общество будоражит ожидание: как же поступит юная леди Уиндемир, наслушавшись сплетен? Не заметит? Отплатит мужу той же монетой, согласившись на предложение влюблённого в неё богатого повесы? И сможет ли она теперь доверять другим и главное - себе?... По пьесе Оскара Уайльда "Веер леди Уиндемир".
Продолжительность: 01:33:08
Перевод: Профессиональный двухголосый
Субтитры: Русские, английские, финские
Навигация по главам: Есть
Файл
Качество: WEB-DL 1080p
Видео: MPEG-4 AVC, 9521 Кбит/сек, 1920x1080, 23,976 кадра/сек
Аудио #1: AC3, 6 ch, 448 Кбит/сек | Русский, профессиональный (двухголосый закадровый) R5
Аудио #2: AC3, 2 ch, 192 Кбит/сек | Русский, профессиональный (двухголосый закадровый) телеканал TV1000
Аудио #3: AC3, 2 ch, 192 Кбит/сек | Украинский, профессиональный (двухголосый закадровый) КРТ
Аудио #4: AC3, 6 ch, 640 Кбит/сек | Английский, оригинал

Скриншоты

Инфо-файл

Общее
Уникальный идентификатор : 204897951987177750205233034850953885272 (0x9A25E8FE1EDE8BA89205FAA224387658)
Полное имя : Хорошая.женщина.2004.WEB-DL.1080p.mkv
Формат : Matroska
Версия формата : Version 2
Размер файла : 7,32 Гбайт
Продолжительность : 1 ч. 33 м.
Режим общего битрейта : Переменный
Общий поток : 11,2 Мбит/сек
Дата кодирования : UTC 2018-12-18 19:58:13
Программа кодирования : mkvmerge v5.8.0 ('No Sleep / Pillow') built on Sep 2 2012 15:37:04
Библиотека кодирования : libebml v1.2.3 + libmatroska v1.3.0
Видео
Идентификатор : 1
Формат : AVC
Формат/Информация : Advanced Video Codec
Профиль формата : High@L4
Настройки формата : CABAC / 4 Ref Frames
Параметр CABAC формата : Да
Параметр RefFrames формата : 4 кадра
Идентификатор кодека : V_MPEG4/ISO/AVC
Продолжительность : 1 ч. 33 м.
Вид битрейта : Переменный
Битрейт : 9517 Кбит/сек
Максимальный битрейт : 15,0 Мбит/сек
Ширина : 1920 пикселей
Высота : 1080 пикселей
Соотношение сторон : 16:9
Режим частоты кадров : Постоянный
Частота кадров : 23,976 (24000/1001) кадра/сек
Цветовое пространство : YUV
Субдискретизация насыщенности : 4:2:0
Битовая глубина : 8 бит
Тип развёртки : Прогрессивная
Бит/(Пиксели*Кадры) : 0.191
Размер потока : 6,19 Гбайт (85%)
Язык : English
По умолчанию : Да
Принудительно : Нет
Цветовой диапазон : Limited
Основные цвета : BT.709
Характеристики трансфера : BT.709
Коэффициенты матрицы : BT.709
Аудио #1
Идентификатор : 2
Формат : AC-3
Формат/Информация : Audio Coding 3
Идентификатор кодека : A_AC3
Продолжительность : 1 ч. 33 м.
Вид битрейта : Постоянный
Битрейт : 448 Кбит/сек
Каналы : 6 каналов
Расположение каналов : Front: L C R, Side: L R, LFE
Частота : 48,0 КГц
Частота кадров : 31,250 кадров/сек (1536 SPF)
Битовая глубина : 16 бит
Метод сжатия : С потерями
Размер потока : 298 Мбайт (4%)
Заголовок : DVO | R5
Язык : Russian
По умолчанию : Да
Принудительно : Нет
Аудио #2
Идентификатор : 3
Формат : AC-3
Формат/Информация : Audio Coding 3
Идентификатор кодека : A_AC3
Продолжительность : 1 ч. 33 м.
Вид битрейта : Постоянный
Битрейт : 224 Кбит/сек
Каналы : 2 канала
Расположение каналов : Front: L R
Частота : 48,0 КГц
Частота кадров : 31,250 кадров/сек (1536 SPF)
Битовая глубина : 16 бит
Метод сжатия : С потерями
Размер потока : 149 Мбайт (2%)
Заголовок : DVO | TV1000
Язык : Russian
По умолчанию : Нет
Принудительно : Нет
Аудио #3
Идентификатор : 4
Формат : AC-3
Формат/Информация : Audio Coding 3
Идентификатор кодека : A_AC3
Продолжительность : 1 ч. 33 м.
Вид битрейта : Постоянный
Битрейт : 192 Кбит/сек
Каналы : 2 канала
Расположение каналов : Front: L R
Частота : 48,0 КГц
Частота кадров : 31,250 кадров/сек (1536 SPF)
Битовая глубина : 16 бит
Метод сжатия : С потерями
Задержка видео : 16 мс.
Размер потока : 128 Мбайт (2%)
Заголовок : DVO | КРТ
Язык : Ukrainian
По умолчанию : Нет
Принудительно : Нет
Аудио #4
Идентификатор : 5
Формат : E-AC-3
Формат/Информация : Enhanced Audio Coding 3
Идентификатор кодека : A_EAC3
Продолжительность : 1 ч. 33 м.
Вид битрейта : Постоянный
Битрейт : 640 Кбит/сек
Каналы : 6 каналов
Расположение каналов : Front: L C R, Side: L R, LFE
Частота : 48,0 КГц
Частота кадров : 187,500 кадров/сек (256 SPF)
Метод сжатия : С потерями
Задержка видео : 16 мс.
Размер потока : 426 Мбайт (6%)
Заголовок : Original
Язык : English
По умолчанию : Нет
Принудительно : Нет
Текст #1
Идентификатор : 6
Формат : UTF-8
Идентификатор кодека : S_TEXT/UTF8
Идентификатор кодека/Информация : UTF-8 Plain Text
Язык : Russian
По умолчанию : Нет
Принудительно : Нет
Текст #2
Идентификатор : 7
Формат : UTF-8
Идентификатор кодека : S_TEXT/UTF8
Идентификатор кодека/Информация : UTF-8 Plain Text
Язык : English
По умолчанию : Нет
Принудительно : Нет
Текст #3
Идентификатор : 8
Формат : UTF-8
Идентификатор кодека : S_TEXT/UTF8
Идентификатор кодека/Информация : UTF-8 Plain Text
Заголовок : SDH
Язык : English
По умолчанию : Нет
Принудительно : Нет
Текст #4
Идентификатор : 9
Формат : UTF-8
Идентификатор кодека : S_TEXT/UTF8
Идентификатор кодека/Информация : UTF-8 Plain Text
Язык : Finnish
По умолчанию : Нет
Принудительно : Нет
Меню
00:00:00.000 : ru:01. Вступление
00:04:05.169 : ru:02. Амалфи, Италия
00:11:02.336 : ru:03. Подарок
00:17:32.726 : ru:04. Встреча
00:23:43.221 : ru:05. Свидания
00:30:15.113 : ru:06. В опере
00:35:43.316 : ru:07. Любовь
00:41:54.061 : ru:08. Чек
00:45:17.890 : ru:09. Тайна
00:50:56.103 : ru:10. Вечеринка
00:58:09.786 : ru:11. Мужчина и женщина
01:03:05.456 : ru:12. Досада
01:08:08.759 : ru:13. Клуб
01:14:19.630 : ru:14. Выяснение отношений
01:22:54.894 : ru:15. Предложение
01:26:22.977 : ru:16. Заключительные титры
[filmgrad.ru].t145792.torrent 
Torrent: Registered [ 2020-03-24 12:40 ] · C86BC8854FE5A066539EA9FF1183E07276F0B125

Download .torrent

Download

38 KB

Status: checked
Completed: 0 times
Size: 7.32 GB
Оценка:  5 (Голосов: 1)
Поблагодарили: 0  Спасибо
terms.php
[Profile] [PM]
Display posts:    
Reply to topic

Current time is: 31-Mar 08:59

All times are UTC + 3



You cannot post new topics in this forum
You cannot reply to topics in this forum
You cannot edit your posts in this forum
You cannot delete your posts in this forum
You cannot vote in polls in this forum
You cannot attach files in this forum
You can download files in this forum