Стрелок / С оружием в руке / Gunmen (1993) WEB-DLRip-AVC | P, A

Reply to topic
DL-List and Torrent activity
Size:  2.72 GB   |    Registered:  6 days   |    Completed:  0 times
Seeders:  12  [  0 KB/s  ]   Leechers:  31  [  0 KB/s  ]   Show peers in full details
 
     
 
 
Author Message

STALKER ®

Gender: Male

Longevity: 6 months 8 days

Posts: 457

Post 24-Mar-2020 12:31

[Quote]

Информация о фильме
Название: Стрелок
Оригинальное название: Gunmen
Год выхода: 1993
Жанр: Боевик, Приключения
Режиссер: Деран Сарафян
В ролях: Кристофер Ламберт, Марио Ван Пиблз, Денис Лири, Патрик Стюарт, Кадим Хардисон, Сэлли Кёркленд, Ричард С. Сарафьян, Роберт Харпер, Бренда Бакки, Джеймс Чалк
О фильме:
Карл Сервиго похищает 400 миллионов долларов - деньги крупного наркобарона Лумеса. Он прячет деньги в небольшой яхте и отправляется за своим братом Дени, сидящем в тюрьме, но люди Луиса находят и убивают Карла. В надежде найти деньги наркобарон отправляет своих людей на поиски Дени, который сбегает из тюрьмы. Дени Сервиго ищут все - и полиция, и бандиты, потому что только он может знать название яхты с деньгами.
Страна: США
Студия: Davis Entertainment, Gray Gunman Productions
Продолжительность: 01:31:00
Качество видео: WEB-DLRip-AVC
Перевод: Профессиональный многоголосый, авторский
Видео: AVC, 1024x428 (2.40:1), 23.976 fps, 3214 kbps (0.306 bit/pixel)
Аудио #1: AC3, 48 kHz, 2 ch, 192 kbps - Русский, MVO ОРТ
Аудио #2: AC3, 48 kHz, 2 ch, 224 kbps - Русский, AVO А.Гаврилов
Аудио #3: AC3, 48 kHz, 2 ch, 224 kbps - Русский, AVO В.Горчаков
Аудио #4: AC3, 48 kHz, 2 ch, 224 kbps - Русский, AVO Д.Есарев
Аудио #5: AC3, 48 kHz, 2 ch, 192 kbps - Английский
Субтитры: English

MI

Format : Matroska
Format version : Version 2
File size : 2.72 GiB
Duration : 1 h 31 min
Overall bit rate : 4 272 kb/s
Encoded date : UTC 2020-03-24 07:23:24
Writing application : mkvmerge v5.3.0 ('I could have danced') built on Feb 9 2012 10:38:07
Writing library : libebml v1.2.3 + libmatroska v1.3.0
Attachments : poster.jpg
Video
ID : 1
Format : AVC
Format/Info : Advanced Video Codec
Format profile : High@L4.1
Format settings : CABAC / 12 Ref Frames
Format settings, CABAC : Yes
Format settings, ReFrames : 12 frames
Codec ID : V_MPEG4/ISO/AVC
Duration : 1 h 31 min
Bit rate : 3 214 kb/s
Width : 1 024 pixels
Height : 428 pixels
Display aspect ratio : 2.40:1
Frame rate mode : Constant
Frame rate : 23.976 (24000/1001) FPS
Color space : YUV
Chroma subsampling : 4:2:0
Bit depth : 8 bits
Scan type : Progressive
Bits/(Pixel*Frame) : 0.306
Stream size : 1.99 GiB (73%)
Writing library : x264 core 146 r2538 121396c
Encoding settings : cabac=1 / ref=12 / deblock=1:-3:-3 / analyse=0x3:0x133 / me=umh / subme=11 / psy=1 / psy_rd=1.00:0.15 / mixed_ref=1 / me_range=32 / chroma_me=1 / trellis=2 / 8x8dct=1 / cqm=0 / deadzone=21,11 / fast_pskip=0 / chroma_qp_offset=-3 / threads=12 / lookahead_threads=2 / sliced_threads=0 / nr=0 / decimate=0 / interlaced=0 / bluray_compat=0 / constrained_intra=0 / bframes=8 / b_pyramid=2 / b_adapt=2 / b_bias=0 / direct=3 / weightb=1 / open_gop=0 / weightp=2 / keyint=240 / keyint_min=23 / scenecut=40 / intra_refresh=0 / rc_lookahead=40 / rc=2pass / mbtree=0 / bitrate=3214 / ratetol=1.0 / qcomp=0.60 / qpmin=0 / qpmax=69 / qpstep=4 / cplxblur=20.0 / qblur=0.5 / vbv_maxrate=50000 / vbv_bufsize=62500 / nal_hrd=none / filler=0 / ip_ratio=1.40 / pb_ratio=1.30 / aq=1:0.70
Default : Yes
Forced : No
Audio #1
ID : 2
Format : AC-3
Format/Info : Audio Coding 3
Commercial name : Dolby Digital
Codec ID : A_AC3
Duration : 1 h 31 min
Bit rate mode : Constant
Bit rate : 192 kb/s
Channel(s) : 2 channels
Channel layout : L R
Sampling rate : 48.0 kHz
Frame rate : 31.250 FPS (1536 SPF)
Bit depth : 16 bits
Compression mode : Lossy
Stream size : 125 MiB (4%)
Title : MVO (ОРТ)
Language : Russian
Service kind : Complete Main
Default : Yes
Forced : Yes
Audio #2
ID : 3
Format : AC-3
Format/Info : Audio Coding 3
Commercial name : Dolby Digital
Codec ID : A_AC3
Duration : 1 h 31 min
Bit rate mode : Constant
Bit rate : 224 kb/s
Channel(s) : 2 channels
Channel layout : L R
Sampling rate : 48.0 kHz
Frame rate : 31.250 FPS (1536 SPF)
Bit depth : 16 bits
Compression mode : Lossy
Stream size : 146 MiB (5%)
Title : AVO А.Гаврилов
Language : Russian
Service kind : Complete Main
Default : No
Forced : No
Audio #3
ID : 4
Format : AC-3
Format/Info : Audio Coding 3
Commercial name : Dolby Digital
Codec ID : A_AC3
Duration : 1 h 31 min
Bit rate mode : Constant
Bit rate : 224 kb/s
Channel(s) : 2 channels
Channel layout : L R
Sampling rate : 48.0 kHz
Frame rate : 31.250 FPS (1536 SPF)
Bit depth : 16 bits
Compression mode : Lossy
Stream size : 146 MiB (5%)
Title : AVO В.Горчаков
Language : Russian
Service kind : Complete Main
Default : No
Forced : No
Audio #4
ID : 5
Format : AC-3
Format/Info : Audio Coding 3
Commercial name : Dolby Digital
Codec ID : A_AC3
Duration : 1 h 31 min
Bit rate mode : Constant
Bit rate : 224 kb/s
Channel(s) : 2 channels
Channel layout : L R
Sampling rate : 48.0 kHz
Frame rate : 31.250 FPS (1536 SPF)
Bit depth : 16 bits
Compression mode : Lossy
Stream size : 146 MiB (5%)
Title : AVO Д.Есарев
Language : Russian
Service kind : Complete Main
Default : No
Forced : No
Audio #5
ID : 6
Format : AC-3
Format/Info : Audio Coding 3
Commercial name : Dolby Digital
Codec ID : A_AC3
Duration : 1 h 31 min
Bit rate mode : Constant
Bit rate : 192 kb/s
Channel(s) : 2 channels
Channel layout : L R
Sampling rate : 48.0 kHz
Frame rate : 31.250 FPS (1536 SPF)
Bit depth : 16 bits
Compression mode : Lossy
Stream size : 125 MiB (4%)
Title : Original
Language : English
Service kind : Complete Main
Default : No
Forced : No
Text
ID : 7
Format : UTF-8
Codec ID : S_TEXT/UTF8
Codec ID/Info : UTF-8 Plain Text
Language : English
Default : No
Forced : No

Скриншоты


[filmgrad.ru].t145790.torrent 
Torrent: Registered [ 2020-03-24 12:31 ] · 6EDA4CA20D90D688FA062F6F2E2AE49CF7706E1F

Download .torrent

Download

15 KB

Status: checked
Completed: 0 times
Size: 2.72 GB
Оценка:  5 (Голосов: 1)
Поблагодарили: 0  Спасибо
terms.php
[Profile] [PM]
Display posts:    
Reply to topic

Current time is: 31-Mar 08:42

All times are UTC + 3



You cannot post new topics in this forum
You cannot reply to topics in this forum
You cannot edit your posts in this forum
You cannot delete your posts in this forum
You cannot vote in polls in this forum
You cannot attach files in this forum
You can download files in this forum