Маяк / The Lighthouse (2019) BDRip 1080p | Лицензия

Reply to topic
DL-List and Torrent activity
Size:  14.99 GB   |    Registered:  13 days   |    Completed:  0 times
Seeders:  725  [  0 KB/s  ]   Leechers:  64  [  0 KB/s  ]   Show peers in full details
 
     
 
 
Author Message

STALKER ®

Gender: Male

Longevity: 6 months 13 days

Posts: 476

Post 24-Mar-2020 12:19

[Quote]

Информация о фильме
Название: Маяк
Оригинальное название: The Lighthouse
Год выхода: 2019
Жанр: Ужасы, фэнтези, драма, детектив
Режиссер: Роберт Эггерс
В ролях: Уиллем Дефо, Роберт Паттинсон, Валерия Караман
О фильме: 1890-е годы. Молодой Ифраим Уинслоу приезжает на отдалённый остров работать новым ассистентом смотрителя маяка. Его начальник - хромоногий и бородатый Томас Уэйк. Он обращается с помощником как с личным рабом и запрещает ему подниматься на сам маяк и управлять светом. Ифраиму предстоит провести в компании Уэйка четыре тяжёлые недели, в течение которых спокойный парень изменится навсегда.
Страна: Канада, США
Студия: A24, New Regency Pictures, RT Features
Продолжительность: 01:49:12
Перевод: Дублированный | Лицензия
Качество: BDRip 1080p
Видео: MPEG-4 AVC, 1296x1080, 17.8 Mbit/s, 23.976 fps
Аудио #01: 48 kHz, DTS, 5.1, 768 Kbps | Дублированный | RUS |
Аудио #02: 48 kHz, AC3, 5.1, 448 Kbps | Дублированный | RUS |
Аудио #03: 48 kHz, AC3, 5.1, 640 Kbps | Оригинал | ENG |
Субтитры: Русские (Forced, 3x full), английские

MI

General
Unique ID : 144675385880602873602156599688536638380 (0x6CD7773DE74EBC7648989EA471F1C3AC)
Complete name : E:Video111The.Lighthouse.2019.BDRip.1080p.seleZen.mkv
Format : Matroska
Format version : Version 4
File size : 15.0 GiB
Duration : 1 h 49 min
Overall bit rate : 19.7 Mb/s
Movie name : The Lighthouse 2019 from селезень
Encoded date : UTC 2020-03-24 08:30:13
Writing application : mkvmerge v40.0.0 ('Old Town Road + Pony') 64-bit
Writing library : libebml v1.3.9 + libmatroska v1.5.2
Video
ID : 1
Format : AVC
Format/Info : Advanced Video Codec
Format profile : High@L4.1
Format settings : CABAC / 5 Ref Frames
Format settings, CABAC : Yes
Format settings, Reference : 5 frames
Codec ID : V_MPEG4/ISO/AVC
Duration : 1 h 49 min
Bit rate : 17.8 Mb/s
Width : 1 296 pixels
Height : 1 080 pixels
Display aspect ratio : 1.200
Frame rate mode : Constant
Frame rate : 23.976 (24000/1001) FPS
Color space : YUV
Chroma subsampling : 4:2:0
Bit depth : 8 bits
Scan type : Progressive
Bits/(Pixel*Frame) : 0.531
Stream size : 13.6 GiB (91%)
Title : playHD
Writing library : x264 core 159 r2991+50 29469ee t_mod_New [all-bit@all X86_64]
Encoding settings : cabac=1 / ref=5 / deblock=1:-3:-3 / analyse=0x3:0x133 / me=umh / subme=10 / psy=1 / fade_compensate=0.00 / psy_rd=1.00:0.00 / mixed_ref=1 / me_range=32 / chroma_me=1 / trellis=2 / 8x8dct=1 / cqm=0 / deadzone=21,11 / fast_pskip=0 / chroma_qp_offset=-2 / threads=12 / lookahead_threads=3 / sliced_threads=0 / nr=0 / decimate=0 / interlaced=0 / bluray_compat=0 / constrained_intra=0 / fgo=0 / bframes=12 / b_pyramid=2 / b_adapt=2 / b_bias=0 / direct=3 / weightb=1 / open_gop=0 / weightp=2 / keyint=250 / keyint_min=23 / scenecut=40 / intra_refresh=0 / rc=crf / mbtree=0 / crf=16.8000 / qcomp=0.60 / qpmin=0:0:0 / qpmax=69:69:69 / qpstep=4 / ip_ratio=1.30 / pb_ratio=1.20 / aq=3:0.87 / aq-sensitivity=10.00 / aq-factor=1.00:1.00:1.00 / aq2=0 / aq3=0
Language : English
Default : Yes
Forced : No
Audio #1
ID : 2
Format : DTS
Format/Info : Digital Theater Systems
Codec ID : A_DTS
Duration : 1 h 49 min
Bit rate mode : Constant
Bit rate : 768 kb/s
Channel(s) : 6 channels
Channel layout : C L R Ls Rs LFE
Sampling rate : 48.0 kHz
Frame rate : 93.750 FPS (512 SPF)
Bit depth : 24 bits
Compression mode : Lossy
Stream size : 600 MiB (4%)
Title : Dub [License]
Language : Russian
Default : Yes
Forced : Yes
Audio #2
ID : 3
Format : AC-3
Format/Info : Audio Coding 3
Commercial name : Dolby Digital
Codec ID : A_AC3
Duration : 1 h 49 min
Bit rate mode : Constant
Bit rate : 448 kb/s
Channel(s) : 6 channels
Channel layout : L R C LFE Ls Rs
Sampling rate : 48.0 kHz
Frame rate : 31.250 FPS (1536 SPF)
Compression mode : Lossy
Stream size : 350 MiB (2%)
Title : Dub [License]
Language : Russian
Service kind : Complete Main
Default : No
Forced : No
Audio #3
ID : 4
Format : AC-3
Format/Info : Audio Coding 3
Commercial name : Dolby Digital
Codec ID : A_AC3
Duration : 1 h 49 min
Bit rate mode : Constant
Bit rate : 640 kb/s
Channel(s) : 6 channels
Channel layout : L R C LFE Ls Rs
Sampling rate : 48.0 kHz
Frame rate : 31.250 FPS (1536 SPF)
Compression mode : Lossy
Stream size : 500 MiB (3%)
Title : Original
Language : English
Service kind : Complete Main
Default : No
Forced : No
Text #1
ID : 5
Format : UTF-8
Codec ID : S_TEXT/UTF8
Codec ID/Info : UTF-8 Plain Text
Duration : 1 h 48 min
Bit rate : 0 b/s
Count of elements : 9
Stream size : 264 Bytes (0%)
Title : Forced [Lic.]
Language : Russian
Default : Yes
Forced : Yes
Text #2
ID : 6
Format : UTF-8
Codec ID : S_TEXT/UTF8
Codec ID/Info : UTF-8 Plain Text
Duration : 1 h 36 min
Bit rate : 57 b/s
Count of elements : 846
Stream size : 40.6 KiB (0%)
Title : Full [Notabenoid / StasSlender]
Language : Russian
Default : No
Forced : No
Text #3
ID : 7
Format : UTF-8
Codec ID : S_TEXT/UTF8
Codec ID/Info : UTF-8 Plain Text
Duration : 1 h 43 min
Bit rate : 53 b/s
Count of elements : 833
Stream size : 40.1 KiB (0%)
Title : Full [FOCS]
Language : Russian
Default : No
Forced : No
Text #4
ID : 8
Format : UTF-8
Codec ID : S_TEXT/UTF8
Codec ID/Info : UTF-8 Plain Text
Duration : 1 h 41 min
Bit rate : 55 b/s
Count of elements : 862
Stream size : 41.6 KiB (0%)
Title : Full [Темное Вселенниво / Omen333]
Language : Russian
Default : No
Forced : No
Text #5
ID : 9
Format : UTF-8
Codec ID : S_TEXT/UTF8
Codec ID/Info : UTF-8 Plain Text
Duration : 1 h 36 min
Bit rate : 33 b/s
Count of elements : 758
Stream size : 23.9 KiB (0%)
Title : Full
Language : English
Default : No
Forced : No
Text #6
ID : 10
Format : UTF-8
Codec ID : S_TEXT/UTF8
Codec ID/Info : UTF-8 Plain Text
Duration : 1 h 45 min
Bit rate : 37 b/s
Count of elements : 1019
Stream size : 28.9 KiB (0%)
Title : SDH
Language : English
Default : No
Forced : No
Menu
00:00:00.000 : :Chapter 01
00:06:49.534 : :Chapter 02
00:11:47.957 : :Chapter 03
00:13:44.949 : :Chapter 04
00:19:52.900 : :Chapter 05
00:25:33.949 : :Chapter 06
00:29:54.793 : :Chapter 07
00:36:23.181 : :Chapter 08
00:41:28.653 : :Chapter 09
00:51:00.307 : :Chapter 10
00:55:48.303 : :Chapter 11
01:03:43.695 : :Chapter 12
01:09:40.718 : :Chapter 13
01:19:01.820 : :Chapter 14
01:24:46.707 : :Chapter 15
01:39:42.602 : :Chapter 16
[filmgrad.ru].t145786.torrent 
Torrent: Registered [ 2020-03-24 12:19 ] · 0265595D3E94C908C5330E80DBD75F6A70EE21D3

Download .torrent

Download

20 KB

Status: checked
Completed: 0 times
Size: 14.99 GB
Оценка:  5 (Голосов: 1)
Поблагодарили: 0  Спасибо
terms.php
[Profile] [PM]
Display posts:    
Reply to topic

Current time is: 06-Apr 16:03

All times are UTC + 3



You cannot post new topics in this forum
You cannot reply to topics in this forum
You cannot edit your posts in this forum
You cannot delete your posts in this forum
You cannot vote in polls in this forum
You cannot attach files in this forum
You can download files in this forum