За деревьями / Behind the Trees (2019) WEB-DL [H.264/1080p-LQ]

Reply to topic
DL-List and Torrent activity
Size:  3.35 GB   |    Registered:  8 days   |    Completed:  0 times
Seeders:  7  [  0 KB/s  ]   Leechers:  4  [  0 KB/s  ]   Show peers in full details
 
     
 
 
Author Message

dybrik13 ®

Gender: Male

Longevity: 1 year 2 months

Posts: 5201

Location: Киев

Post 23-Mar-2020 08:21

[Quote]

За деревьями / Behind the Trees- Производство: США / Rania Sky Studios
Жанр: Ужасы, Триллер, Детектив
Режиссер: Vikram Jayakumar
Продюсер: Laxmi Grover Gonzales, Arjun Grover, Daniel Gonzales
Актеры: Ванесса Керри, Сахил Шрофф, Субрат Дутта, Tvisha Seema, Tanvi Shinde, Аппорва Арора, Mohit Hiranandani, Abheer Meherish, Rhea Harwani, Rajesh Arya-Двое американцев проводят романтический отпуск в индийской глуши, где случайно становятся свидетелями изгнания демонов из тела 11-летней девочки. Пара решает спасти ребёнка от пугающего ритуала, не зная, что благородный поступок может дорого им обойтись.
Дата мировой премьеры: 21 ноября 2019
Продолжительность: 01:27:11
Качество видео: WEB-DL
Перевод: Многоголосый профессиональный (Line)
Субтитры: Английские (hardsub на Хинди)
Видео: AVC/H.264, 1920x800, ~5120 Kbps
Аудио: AC3, 2 ch, 384 Kbps

MediaInfo:

General
Unique ID : 184775581349938641729516110482545357192 (0x8B027B85DCFC0ABD941C8EEB655CB188)
Complete name : E:\Za.derevyami.2019.1080p.WEB-DL.ELEKTRI4KA.UNIONGANG.mkv
Format : Matroska
Format version : Version 4
File size : 3.35 GiB
Duration : 1 h 27 min
Overall bit rate : 5 495 kb/s
Movie name : ELEKTRI4KA.UNIONGANG
Encoded date : UTC 2020-03-20 16:36:53
Writing application : mkvmerge v8.3.0 ('Over the Horizon') 64bit
Writing library : libebml v1.3.1 + libmatroska v1.4.2
Video
ID : 1
Format : AVC
Format/Info : Advanced Video Codec
Format profile : High@L4
Format settings : CABAC / 4 Ref Frames
Format settings, CABAC : Yes
Format settings, Reference frames : 4 frames
Codec ID : V_MPEG4/ISO/AVC
Duration : 1 h 27 min
Bit rate : 5 120 kb/s
Width : 1 920 pixels
Height : 800 pixels
Display aspect ratio : 2.40:1
Frame rate mode : Constant
Frame rate : 24.000 FPS
Color space : YUV
Chroma subsampling : 4:2:0
Bit depth : 8 bits
Scan type : Progressive
Bits/(Pixel*Frame) : 0.139
Stream size : 3.11 GiB (93%)
Writing library : x264 core 148
Encoding settings : cabac=1 / ref=3 / deblock=1:0:0 / analyse=0x3:0x113 / me=hex / subme=7 / psy=1 / psy_rd=1.00:0.00 / mixed_ref=1 / me_range=16 / chroma_me=1 / trellis=1 / 8x8dct=1 / cqm=0 / deadzone=21,11 / fast_pskip=1 / chroma_qp_offset=-2 / threads=25 / lookahead_threads=4 / sliced_threads=0 / nr=0 / decimate=1 / interlaced=0 / bluray_compat=0 / constrained_intra=0 / bframes=6 / b_pyramid=2 / b_adapt=1 / b_bias=0 / direct=1 / weightb=1 / open_gop=0 / weightp=2 / keyint=48 / keyint_min=25 / scenecut=0 / intra_refresh=0 / rc_lookahead=40 / rc=2pass / mbtree=1 / bitrate=5120 / ratetol=1.0 / qcomp=0.60 / qpmin=0 / qpmax=69 / qpstep=4 / cplxblur=20.0 / qblur=0.5 / vbv_maxrate=7680 / vbv_bufsize=20480 / nal_hrd=none / filler=0 / ip_ratio=1.40 / aq=1:1.00
Default : Yes
Forced : No
Audio
ID : 2
Format : AC-3
Format/Info : Audio Coding 3
Commercial name : Dolby Digital
Codec ID : A_AC3
Duration : 1 h 27 min
Bit rate mode : Constant
Bit rate : 384 kb/s
Channel(s) : 2 channels
Channel layout : L R
Sampling rate : 48.0 kHz
Frame rate : 31.250 FPS (1536 SPF)
Compression mode : Lossy
Stream size : 239 MiB (7%)
Title : Line
Language : Russian
Service kind : Complete Main
Default : Yes
Forced : No
Menu
00:00:00.000 : en:1
00:04:08.790 : en:2
00:06:53.788 : en:3
00:11:53.129 : en:4
00:15:30.304 : en:5
00:20:34.775 : en:6
00:23:20.148 : en:7
00:26:41.724 : en:8
00:30:58.813 : en:9
00:36:05.870 : en:10
00:41:34.239 : en:11
00:45:41.235 : en:12
00:49:57.073 : en:13
00:53:58.189 : en:14
00:56:33.594 : en:15
01:00:06.056 : en:16
01:08:46.200 : en:17
01:12:51.068 : en:18
01:17:33.557 : en:19
01:20:18.220 : en:20
01:23:18.357 : en:21
01:26:04.523 : en:22
01:29:46.453 : en:23
01:33:08.154 : en:24
Скриншоты:
[filmgrad.ru].t145758.torrent 
Torrent: Registered [ 2020-03-23 08:21 ] · B2E1741654873024B69633F85161C9C2505DCAA6

Download .torrent

Download

68 KB

Status: checked
Completed: 0 times
Size: 3.35 GB
Оценка:  5 (Голосов: 1)
Поблагодарили: 0  Спасибо
terms.php
[Profile] [PM]
Display posts:    
Reply to topic

Current time is: 31-Mar 15:19

All times are UTC + 3



You cannot post new topics in this forum
You cannot reply to topics in this forum
You cannot edit your posts in this forum
You cannot delete your posts in this forum
You cannot vote in polls in this forum
You cannot attach files in this forum
You can download files in this forum