Горящая собака / Burning Dog (2020) WEB-DLRip [H.264/720p-LQ] [MVO] [AD]

Reply to topic
DL-List and Torrent activity
Size:  3.57 GB   |    Registered:  8 days   |    Completed:  0 times

Seeder not seen: Never

Leechers:  28  [  0 KB/s  ]   Show peers in full details
 
     
 
 
Author Message

dybrik13 ®

Gender: Male

Longevity: 1 year 2 months

Posts: 5201

Location: Киев

Post 23-Mar-2020 08:18

[Quote]

Горящая собака / Burning Dog- Производство: США / Bandwagon Media, Burning Dog
Жанр: Триллер
Режиссер: Trey Batchelor
Актеры: Грег Гранберг, Сальватор Ксереб, Эдриэнн Уилкинсон, Мэтт Бушнелл, Эдди Джемисон, Крис Батлер, Эндрю Гилберт, Крис Тодд, Гари Патент, Майкл Клесич-Когда дизайнер видеоигр оказывается впутан в историю с шантажом, он сталкивается с наемными убийцами, русскими бандитами и продажными копами. Это дикое путешесвие в странном мире Лос-Анджелеса. "Горящая собака" - уникальный триллер, в котором зритель воспринимает все глазами одного персонажа, а тайна не раскрывается до самого конца.
Дата мировой премьеры: 17 марта 2020
Продолжительность: 01:29:12
Качество видео: WEB-DLRip
Перевод: Многоголосый закадровый, профессиональный (Синема УС)
Субтитры: Отсутствуют
Видео: AVC/H.264, 1280x720, ~5232 Kbps
Аудио: AC-3, 2 ch, 384 Kbps

MediaInfo:

Общее
Полное имя : D:\NNM\Горящая собака\Burning.Dog.2020.WEB-DLRip.720p-LQ.mkv
Формат : Matroska
Версия формата : Version 2
Размер файла : 3,57 Гбайт
Продолжительность : 1 ч. 29 м.
Режим общего битрейта : Переменный
Общий поток : 5730 Кбит/сек
Программа кодирования : libmatroska 1.4.1
Библиотека кодирования : SolveigMM Matroska Muxer Version 1.0.1502.31
Видео
Идентификатор : 1
Формат : AVC
Формат/Информация : Advanced Video Codec
Профиль формата : High@L4.1
Настройки формата : CABAC / 4 Ref Frames
Параметр CABAC формата : Да
Параметр RefFrames формата : 4 кадра
Идентификатор кодека : V_MPEG4/ISO/AVC
Продолжительность : 1 ч. 29 м.
Вид битрейта : Переменный
Битрейт : 5232 Кбит/сек
Номинальный битрейт : 6000 Кбит/сек
Максимальный битрейт : 6000 Кбит/сек
Ширина : 1280 пикселей
Высота : 720 пикселей
Соотношение сторон : 16:9
Режим частоты кадров : Постоянный
Частота кадров : 23,976 (24000/1001) кадра/сек
Стандарт вещания : Component
Цветовое пространство : YUV
Субдискретизация насыщенности : 4:2:0
Битовая глубина : 8 бит
Тип развёртки : Прогрессивная
Бит/(Пиксели*Кадры) : 0.237
Размер потока : 3,26 Гбайт (91%)
Default : Нет
Forced : Нет
Цветовой диапазон : Limited
Основные цвета : BT.709
Характеристики трансфера : BT.709
Коэффициенты матрицы : BT.709
Аудио
Идентификатор : 2
Формат : AC-3
Формат/Информация : Audio Coding 3
Коммерческое название : Dolby Digital
Идентификатор кодека : A_AC3
Продолжительность : 1 ч. 29 м.
Вид битрейта : Постоянный
Битрейт : 384 Кбит/сек
Каналы : 2 канала
ChannelLayout : L R
Частота : 48,0 КГц
Частота кадров : 31,250 кадров/сек (1536 SPF)
Метод сжатия : С потерями
Размер потока : 245 Мбайт (7%)
Язык : Russian
ServiceKind/String : Complete Main
Default : Нет
Forced : Нет
Скриншоты:
[filmgrad.ru].t145757.torrent 
Torrent: Registered [ 2020-03-23 08:18 ] · 89F127E159650D38EE9A71E38CF112D826B16C7C

Download .torrent

Download

19 KB

Status: checked
Completed: 0 times
Size: 3.57 GB
Оценка:  5 (Голосов: 1)
Поблагодарили: 0  Спасибо
terms.php
[Profile] [PM]
Display posts:    
Reply to topic

Current time is: 31-Mar 16:04

All times are UTC + 3



You cannot post new topics in this forum
You cannot reply to topics in this forum
You cannot edit your posts in this forum
You cannot delete your posts in this forum
You cannot vote in polls in this forum
You cannot attach files in this forum
You can download files in this forum