Убийство в Лилле / Meurtres a Lille (2019) HDTVRip [H.264/720p-LQ] [MVO]

Reply to topic
DL-List and Torrent activity
Size:  3.97 GB   |    Registered:  14 days   |    Completed:  1 time

Seeder not seen: 1 day 20 hours

Leechers:  20  [  0 KB/s  ]   Show peers in full details
 
     
 
 
Author Message

dybrik13 ®

Gender: Male

Longevity: 1 year 2 months

Posts: 5364

Location: Киев

Post 23-Mar-2020 08:16

[Quote]

Убийство в Лилле / Meurtres a Lille- Производство: Франция, Бельгия, Швейцария / Superwoman Production, Picture Box, Fontana
Жанр: Детектив, драма, криминал
Режиссер: Лоранс Катриан
Актеры: Аннелиз Эм, Лу-Дени Эльон, Эльза Лунгини, Адель Шубар, Axel Auriant , Эрик Стувенакер, Christian Van Tomme, Vincent Colombe , Эва Дарлан, Milena Sansonetti-Через несколько часов после открытия выставки работ лилльского скульптора Виктора Морена был обнаружен его труп. Для проведения расследования из Парижа приглашена майор Каролина Фламан, которая здесь родилась. Она встречается со своей подругой детства Астрид Д'Армантьер, сценографом жертвы...
Дата мировой премьеры: 28 сентября 2019
Продолжительность: 01:34:33
Качество видео: HDTVRip
Перевод: Многоголосый закадровый, профессиональный (Синема УС)
Субтитры: Отсутствуют
Видео: AVC/H.264, 1280x640, ~5504 Kbps
Аудио: AC-3, 2 ch, 384 Kbps

MediaInfo:

Общее
Полное имя : D:\NNM\Убийство в Лилле\Meurtres.a.Lille.2019.HDTVRip.720p-LQ.mkv
Формат : Matroska
Версия формата : Version 2
Размер файла : 3,97 Гбайт
Продолжительность : 1 ч. 34 м.
Режим общего битрейта : Переменный
Общий поток : 6008 Кбит/сек
Программа кодирования : libmatroska 1.4.1
Библиотека кодирования : SolveigMM Matroska Muxer Version 1.0.1502.31
Видео
Идентификатор : 1
Формат : AVC
Формат/Информация : Advanced Video Codec
Профиль формата : High@L4.1
Настройки формата : CABAC / 4 Ref Frames
Параметр CABAC формата : Да
Параметр RefFrames формата : 4 кадра
Идентификатор кодека : V_MPEG4/ISO/AVC
Продолжительность : 1 ч. 34 м.
Вид битрейта : Переменный
Битрейт : 5504 Кбит/сек
Номинальный битрейт : 6000 Кбит/сек
Максимальный битрейт : 6000 Кбит/сек
Ширина : 1280 пикселей
Высота : 640 пикселей
Соотношение сторон : 2,000
Режим частоты кадров : Постоянный
Частота кадров : 23,976 (24000/1001) кадра/сек
Стандарт вещания : Component
Цветовое пространство : YUV
Субдискретизация насыщенности : 4:2:0
Битовая глубина : 8 бит
Тип развёртки : Прогрессивная
Бит/(Пиксели*Кадры) : 0.280
Размер потока : 3,64 Гбайт (92%)
Default : Нет
Forced : Нет
Цветовой диапазон : Limited
Основные цвета : BT.709
Характеристики трансфера : BT.709
Коэффициенты матрицы : BT.709
Аудио
Идентификатор : 2
Формат : AC-3
Формат/Информация : Audio Coding 3
Коммерческое название : Dolby Digital
Идентификатор кодека : A_AC3
Продолжительность : 1 ч. 34 м.
Вид битрейта : Постоянный
Битрейт : 384 Кбит/сек
Каналы : 2 канала
ChannelLayout : L R
Частота : 48,0 КГц
Частота кадров : 31,250 кадров/сек (1536 SPF)
Метод сжатия : С потерями
Размер потока : 260 Мбайт (6%)
Язык : Russian
ServiceKind/String : Complete Main
Default : Нет
Forced : Нет
Скриншоты:
[filmgrad.ru].t145756.torrent 
Torrent: Registered [ 2020-03-23 08:16 ] · F3B17C3A1B95603EBC0E58E97D9ACCF3D397E7A5

Download .torrent

Download

21 KB

Status: checked
Completed: 1 times
Size: 3.97 GB
Оценка:  5 (Голосов: 1)
Поблагодарили: 0  Спасибо
terms.php
[Profile] [PM]
Display posts:    
Reply to topic

Current time is: 06-Apr 15:59

All times are UTC + 3



You cannot post new topics in this forum
You cannot reply to topics in this forum
You cannot edit your posts in this forum
You cannot delete your posts in this forum
You cannot vote in polls in this forum
You cannot attach files in this forum
You can download files in this forum