Убийства по открыткам / The Postcard Killings (2020) WEB-DLRip [H.264/1080p-LQ] [MVO] [AD]

Reply to topic
DL-List and Torrent activity
Size:  5.48 GB   |    Registered:  14 days   |    Completed:  0 times
Seeders:  3  [  0 KB/s  ]   Leechers:  10  [  0 KB/s  ]   Show peers in full details
 
     
 
 
Author Message

dybrik13 ®

Gender: Male

Longevity: 1 year 2 months

Posts: 5364

Location: Киев

Post 22-Mar-2020 19:14

[Quote]

Убийства по открыткам / The Postcard Killings- Производство: Великобритания, США / Good Films Collective, K. JAM Media
Жанр: Детектив, криминал, драма
Режиссер: Данис Танович
Актеры: Джеффри Дин Морган, Фамке Янссен, Наоми Баттрик, Руаири О'Коннор, Каш Джамбо, Йоахим Круль, Эва Рёзе, Лукас Лугрэн, Стивен Макинтош, Дилан Девональд Смит-Лондон, Мадрид, Стокгольм… В Европе орудует жестокий и изощрённый маньяк-убийца. Перемещаясь из города в город, он дразнит полицию, посылая журналистам подсказки в виде открыток из музеев. Одной из его жертв становится дочь опытного и харизматичного детектива из Нью-Йорка, Джейкоба Кэнона. Теперь его цель — найти убийцу и отомстить.
Возраст: 16+ (зрителям, достигшим 16 лет)
Дата мировой премьеры: 13 марта 2020
Дата премьеры в России: 2 апреля 2020

Продолжительность: 01:43:37
Качество видео: WEB-DLRip
Перевод: Многоголосый закадровый, любительский (MUZOBOZ)
Субтитры: Отсутствуют
Видео: AVC/H.264, 1912x792, ~7043 Kbps
Аудио: AC3, 2 ch, 384 Kbps

MediaInfo:

Общее
Полное имя : D:\NNM\Убийства по открыткам\The.Postcard.Killings.2020.WEB-DLRip.1080p-LQ.mkv
Формат : Matroska
Версия формата : Version 2
Размер файла : 5,48 Гбайт
Продолжительность : 1 ч. 43 м.
Режим общего битрейта : Переменный
Общий поток : 7578 Кбит/сек
Программа кодирования : libmatroska 1.4.1
Библиотека кодирования : SolveigMM Matroska Muxer Version 1.0.1502.31
Видео
Идентификатор : 1
Формат : AVC
Формат/Информация : Advanced Video Codec
Профиль формата : High@L4.1
Настройки формата : CABAC / 4 Ref Frames
Параметр CABAC формата : Да
Параметр RefFrames формата : 4 кадра
Идентификатор кодека : V_MPEG4/ISO/AVC
Продолжительность : 1 ч. 43 м.
Вид битрейта : Переменный
Битрейт : 7043 Кбит/сек
Номинальный битрейт : 7600 Кбит/сек
Максимальный битрейт : 7600 Кбит/сек
Ширина : 1912 пикселей
Высота : 792 пикселя
Соотношение сторон : 2,40:1
Режим частоты кадров : Постоянный
Частота кадров : 23,976 (24000/1001) кадра/сек
Стандарт вещания : Component
Цветовое пространство : YUV
Субдискретизация насыщенности : 4:2:0
Битовая глубина : 8 бит
Тип развёртки : Прогрессивная
Бит/(Пиксели*Кадры) : 0.194
Размер потока : 5,10 Гбайт (93%)
Default : Нет
Forced : Нет
Цветовой диапазон : Limited
Основные цвета : BT.709
Характеристики трансфера : BT.709
Коэффициенты матрицы : BT.709
Аудио
Идентификатор : 2
Формат : AC-3
Формат/Информация : Audio Coding 3
Коммерческое название : Dolby Digital
Идентификатор кодека : A_AC3
Продолжительность : 1 ч. 43 м.
Вид битрейта : Постоянный
Битрейт : 384 Кбит/сек
Каналы : 2 канала
ChannelLayout : L R
Частота : 48,0 КГц
Частота кадров : 31,250 кадров/сек (1536 SPF)
Метод сжатия : С потерями
Размер потока : 285 Мбайт (5%)
Язык : Russian
ServiceKind/String : Complete Main
Default : Нет
Forced : Нет
Скриншоты:
[filmgrad.ru].t145735.torrent 
Torrent: Registered [ 2020-03-22 19:14 ] · CF36A83FB5A7F49CBD5E220243F3BEF8ED50AEDF

Download .torrent

Download

28 KB

Status: checked
Completed: 0 times
Size: 5.48 GB
Оценка:  5 (Голосов: 1)
Поблагодарили: 0  Спасибо
terms.php
[Profile] [PM]
Display posts:    
Reply to topic

Current time is: 06-Apr 15:23

All times are UTC + 3



You cannot post new topics in this forum
You cannot reply to topics in this forum
You cannot edit your posts in this forum
You cannot delete your posts in this forum
You cannot vote in polls in this forum
You cannot attach files in this forum
You can download files in this forum