На Луне (2020) CAMRip [H.264/720p-LQ] [AD]

Reply to topic
DL-List and Torrent activity
Size:  2.71 GB   |    Registered:  15 days   |    Completed:  0 times
Seeders:  3  [  0 KB/s  ]   Leechers:  7  [  0 KB/s  ]   Show peers in full details
 
     
 
 
Author Message

dybrik13 ®

Gender: Male

Longevity: 1 year 2 months

Posts: 5364

Location: Киев

Post 22-Mar-2020 14:19

[Quote]

На Луне- Производство: Россия / Вертикаль
Жанр: Приключения, триллер
Режиссер: Егор Кончаловский
Актеры: Иван Архангельский, Виталий Кищенко, Александр Балуев, Федор Бавтриков, Степан Лапин, Варвара Комарова, Сейдулла Молдаханов-Глеб, сын очень важного, обеспеченного и высокопоставленного господина, заслужил своими сомнительными подвигами на грани криминала репутацию сорвиголовы и беспредельщика. Однажды во время ночных гонок по улицам Москвы, уходя от преследования ГИБДД, Глеб не справился с управлением и сбил пешехода. Пока неприятности не улягутся, отец отсылает сына подальше в северные края, туда, где он любил охотиться еще в 90-е и где познакомился с отшельником, живущим в лесу. Именно у него и «прячут» Глеба. Для молодого человека начинается совершенно иная жизнь с крайне непредсказуемым, мрачным и молчаливым стариком.
Возраст: 16+ (зрителям, достигшим 16 лет)
Дата премьеры в России: 27 февраля 2020
Продолжительность: 01:36:23
Качество видео: CAMRip
Перевод: Не требуется (русский)
Субтитры: Отсутствуют
Видео: AVC/H.264, 1280x536, ~3560 Kbps
Аудио: AC-3, 2 ch, 384 Kbps

MediaInfo:

Общее
Полное имя : D:\NNM\На Луне\Na.Lune.2020.CAMRip.720p-LQ.mkv
Формат : Matroska
Версия формата : Version 2
Размер файла : 2,71 Гбайт
Продолжительность : 1 ч. 36 м.
Режим общего битрейта : Переменный
Общий поток : 4024 Кбит/сек
Программа кодирования : libmatroska 1.4.1
Библиотека кодирования : SolveigMM Matroska Muxer Version 1.0.1502.31
Видео
Идентификатор : 1
Формат : AVC
Формат/Информация : Advanced Video Codec
Профиль формата : High@L4.1
Настройки формата : CABAC / 4 Ref Frames
Параметр CABAC формата : Да
Параметр RefFrames формата : 4 кадра
Идентификатор кодека : V_MPEG4/ISO/AVC
Продолжительность : 1 ч. 36 м.
Вид битрейта : Переменный
Битрейт : 3560 Кбит/сек
Номинальный битрейт : 4000 Кбит/сек
Максимальный битрейт : 4000 Кбит/сек
Ширина : 1280 пикселей
Высота : 536 пикселей
Соотношение сторон : 2,40:1
Режим частоты кадров : Постоянный
Частота кадров : 23,976 (24000/1001) кадра/сек
Стандарт вещания : Component
Цветовое пространство : YUV
Субдискретизация насыщенности : 4:2:0
Битовая глубина : 8 бит
Тип развёртки : Прогрессивная
Бит/(Пиксели*Кадры) : 0.216
Размер потока : 2,40 Гбайт (88%)
Default : Нет
Forced : Нет
Цветовой диапазон : Limited
Основные цвета : BT.709
Характеристики трансфера : BT.709
Коэффициенты матрицы : BT.709
Аудио
Идентификатор : 2
Формат : AC-3
Формат/Информация : Audio Coding 3
Коммерческое название : Dolby Digital
Идентификатор кодека : A_AC3
Продолжительность : 1 ч. 36 м.
Вид битрейта : Постоянный
Битрейт : 384 Кбит/сек
Каналы : 2 канала
ChannelLayout : L R
Частота : 48,0 КГц
Частота кадров : 31,250 кадров/сек (1536 SPF)
Метод сжатия : С потерями
Размер потока : 265 Мбайт (10%)
Язык : Russian
ServiceKind/String : Complete Main
Default : Нет
Forced : Нет
Скриншоты:
[filmgrad.ru].t145731.torrent 
Torrent: Registered [ 2020-03-22 14:19 ] · AC3A7772C87D506D8A3570F1A38F827281A7D66A

Download .torrent

Download

14 KB

Status: checked
Completed: 0 times
Size: 2.71 GB
Оценка:  5 (Голосов: 1)
Поблагодарили: 0  Спасибо
terms.php
[Profile] [PM]
Display posts:    
Reply to topic

Current time is: 06-Apr 14:52

All times are UTC + 3



You cannot post new topics in this forum
You cannot reply to topics in this forum
You cannot edit your posts in this forum
You cannot delete your posts in this forum
You cannot vote in polls in this forum
You cannot attach files in this forum
You can download files in this forum