Мой Self-Harm (2018) WEBRip

Reply to topic
DL-List and Torrent activity
Size:  1.19 GB   |    Registered:  4 months 19 days   |    Completed:  1 time

Seeder not seen: 4 months 18 days

Leechers:  16  [  0 KB/s  ]   Show peers in full details
 
     
 
 
Author Message

dybrik13 ®

Gender: Male

Longevity: 1 year 5 months

Posts: 7120

Location: Киев

Post 21-Feb-2020 21:01

[Quote]

Мой Self-Harm- Производство: Россия
Жанр: Документальный
Режиссер: Яков Раскалов-Селфхарм – это набирающий популярность термин, означающий самоповреждение без суицидальных намерений, симптом многих психических расстройств личности. Этот фильм – попытка снять клеймо табуированности и общественного осуждения такого поведения.
Возраст: 18+(зрителям, достигшим 18 лет. запрещено для детей)
Продолжительность: 01:31:05
Качество видео: WEBRip
Субтитры: Отсутствуют
Видео: Xvid, 720x400 (16:9), ~1675 Kbps
Аудио: AC3, 2 ch, 192 Kbps

MediaInfo:

Общее
Полное имя : D:\Мой Self Harm (2018).avi
Формат : AVI
Формат/Информация : Audio Video Interleave
Профиль формата : OpenDML
Размер файла : 1,19 Гбайт
Продолжительность : 1 ч. 31 м.
Общий поток : 1878 Кбит/сек
Программа кодирования : Lavf58.20.100
Видео
Идентификатор : 0
Формат : MPEG-4 Visual
Профиль формата : Advanced Simple@L5
Настройки формата : BVOP2
Параметр BVOP формата : 2
Параметр QPel формата : Нет
Параметр GMC формата : Без точки перехода
Параметр матрицы формата : Default (MPEG)
Идентификатор кодека : XVID
Идентификатор кодека/Подсказка : XviD
Продолжительность : 1 ч. 31 м.
Битрейт : 1673 Кбит/сек
Ширина : 720 пикселей
Высота : 400 пикселей
Соотношение сторон : 16:9
Частота кадров : 25,000 кадров/сек
Цветовое пространство : YUV
Субдискретизация насыщенности : 4:2:0
Битовая глубина : 8 бит
Тип развёртки : Прогрессивная
Метод сжатия : С потерями
Бит/(Пиксели*Кадры) : 0.232
Размер потока : 1,06 Гбайт (89%)
Библиотека кодирования : XviD 67
Аудио
Идентификатор : 1
Формат : AC-3
Формат/Информация : Audio Coding 3
Коммерческое название : Dolby Digital
Идентификатор кодека : 2000
Продолжительность : 1 ч. 31 м.
Вид битрейта : Постоянный
Битрейт : 192 Кбит/сек
Каналы : 2 канала
ChannelLayout : L R
Частота : 48,0 КГц
Частота кадров : 31,250 кадров/сек (1536 SPF)
Битовая глубина : 16 бит
Метод сжатия : С потерями
Размер потока : 125 Мбайт (10%)
Выравнивание : Соединение по промежуткам
Продолжительность промежутка : 32 мс. (0,80 видеокадр)
ServiceKind/String : Complete Main
Скриншоты:
[filmgrad.ru].t144500.torrent 
Torrent: Registered [ 2020-02-21 21:01 ] · FA5D16562E70F8AE0D0813625F8DC8B782572CC1

Download .torrent

Download

13 KB

Status: checked
Completed: 1 times
Size: 1.19 GB
Оценка:  5 (Голосов: 1)
Поблагодарили: 0  Спасибо
terms.php
[Profile] [PM]
Display posts:    
Reply to topic

Current time is: 12-Jul 08:14

All times are UTC + 3



You cannot post new topics in this forum
You cannot reply to topics in this forum
You cannot edit your posts in this forum
You cannot delete your posts in this forum
You cannot vote in polls in this forum
You cannot attach files in this forum
You can download files in this forum