У нас без правил и рекламы

Чем мы заняты в тени / What We Do in the Shadows (2019) WEBRip [H.264/720p] (сезон 1, серии 1-10 из 10) HDRezka Studio

Reply to topic
DL-List and Torrent activity
Size:  9.02 GB   |    Registered:  12 days   |    Completed:  0 times

Seeder not seen: Never

Leechers:  52  [  0 KB/s  ]   Show peers in full details
 
     
 
 
Author Message

dybrik13 ®

Gender: Male

Longevity: 1 year

Posts: 4468

Location: Киев

Post 13-Feb-2020 18:51

[Quote]

Чем мы заняты в тени / What We Do in the Shadows- Производство: США / Defender Films, fX Network
Жанр: комедия, ужасы
Режиссер: Джемейн Клемент, Тайка Вайтити, Джеки ван Бик
Актеры: Кайван Новак, Мэтт Берри, Натасия Деметриу, Харви Гильен, Марк Прокш, Даг Джонс, Бини Фелдштейн, Глория Лайно, Джейк Макдорман-Три главных героя делят дом, решают бытовые конфликты, ищут любовь — и свежую кровь, без которой им, вампирам, не прожить.

Возраст: 16+ (зрителям, достигшим 16 лет)
Продолжительность: ~00:23:00 серия
Качество видео: WEBRip
Перевод: Многоголосый профессиональный (HDRezka Studio)
Субтитры: русские (на надписи)
Видео: AVC/H.264, 1280x720 (16:9), ~3865-7435 Kbps
Аудио: AC3, 2 ch, 192 Kbps - русский

MediaInfo:

Общее
Уникальный идентификатор : 8255046840043772496469344495689289758 (0x635DD3B90E957DBF9F0126D7E18501E)
Полное имя : G:\What.We.Do.in.the.Shadows.2019.S01\What.We.Do.in.the.Shadows.S01E01.WEBRip.720p.mkv
Формат : Matroska
Версия формата : Version 4
Размер файла : 1,58 Гбайт
Продолжительность : 29 м. 8 с.
Режим общего битрейта : Переменный
Общий поток : 7781 Кбит/сек
Программа кодирования : Lavf58.26.101
Библиотека кодирования : Lavf58.26.101
ErrorDetectionType : Per level 1
Видео
Идентификатор : 1
Формат : AVC
Формат/Информация : Advanced Video Codec
Профиль формата : High@L4.1
Настройки формата : CABAC / 1 Ref Frames
Параметр CABAC формата : Да
Параметр RefFrames формата : 1 кадр
Идентификатор кодека : V_MPEG4/ISO/AVC
Продолжительность : 29 м. 8 с.
Вид битрейта : Переменный
Битрейт : 7434 Кбит/сек
Максимальный битрейт : 2000 Кбит/сек
Ширина : 1280 пикселей
Высота : 720 пикселей
Соотношение сторон : 16:9
Режим частоты кадров : Постоянный
Частота кадров : 23,976 (24000/1001) кадра/сек
Цветовое пространство : YUV
Субдискретизация насыщенности : 4:2:0
Битовая глубина : 8 бит
Тип развёртки : Прогрессивная
Бит/(Пиксели*Кадры) : 0.336
Размер потока : 1,51 Гбайт (96%)
Default : Да
Forced : Нет
Аудио
Идентификатор : 2
Формат : AC-3
Формат/Информация : Audio Coding 3
Коммерческое название : Dolby Digital
Идентификатор кодека : A_AC3
Продолжительность : 29 м. 8 с.
Вид битрейта : Постоянный
Битрейт : 192 Кбит/сек
Каналы : 2 канала
ChannelLayout : L R
Частота : 48,0 КГц
Частота кадров : 31,250 кадров/сек (1536 SPF)
Битовая глубина : 32 бит
Метод сжатия : С потерями
Задержка видео : -5 мс.
Размер потока : 40,0 Мбайт (2%)
Язык : Russian
ServiceKind/String : Complete Main
Default : Да
Forced : Нет
Скриншоты:
[filmgrad.ru].t144293.torrent 
Torrent: Registered [ 2020-02-13 18:51 ] · FAA9FFD0C2A1D15CB941934CE0CE730C053A5795

Download .torrent

Download

47 KB

Status: checked
Completed: 0 times
Size: 9.02 GB
Оценка:  5 (Голосов: 1)
Поблагодарили: 0  Спасибо
terms.php
[Profile] [PM]
Display posts:    
Reply to topic

Current time is: 26-Feb 00:09

All times are UTC + 3



You cannot post new topics in this forum
You cannot reply to topics in this forum
You cannot edit your posts in this forum
You cannot delete your posts in this forum
You cannot vote in polls in this forum
You cannot attach files in this forum
You can download files in this forum