У нас без правил и рекламы

Отважная 2 / Mardaani 2 (2019) WEB-DLRip [H.264/720p-LQ] [DVO]

Reply to topic
DL-List and Torrent activity
Size:  4.46 GB   |    Registered:  12 days   |    Completed:  1 time
Seeders:  3  [  0 KB/s  ]   Leechers:  22  [  0 KB/s  ]   Show peers in full details
 
     
 
 
Author Message

dybrik13 ®

Gender: Male

Longevity: 1 year

Posts: 4468

Location: Киев

Post 13-Feb-2020 08:24

[Quote]

Отважная 2 / Mardaani 2- Производство: Индия / Yash Raj Films
Жанр: триллер, криминал, детектив
Режиссер: Гопи Путран
Продюсер: Адитья Чопра, Танви Ганди, Бхарат Равайл
Актеры: Рани Мукхерджи, Джишу Сенгупта, Шрути Бапна, Раджеш Шарма, Vishal Jethwa, Викрам Сингх Чаухан, Санни Хиндуджа, Kirti Choudhary, Гарима Джайн, Комал Чабрия-В Мумбаи завёлся серийный убийца, который похищает девушек, издевается над ними и в конце концов жестоко убивает.
Для честной и неподкупной сотрудницы полиции поимка маньяка становится делом чести.

Дата мировой премьеры: 13 декабря 2019
Продолжительность: 01:43:25
Качество видео: WEB-DLRip
Перевод: Двухголосый профессиональный (Honey&Haseena (присутствует ненормативная лексика))
Субтитры: Отсутствуют
Видео: AVC/H.264, 1280x544, ~5535 Kbps
Аудио: AC3, 6 ch, 640 Kbps - Русский (DVO)

MediaInfo:

General
Unique ID : 206671817715306710683444044866532885044 (0x9B7B8B534E1B14DEB762F95DC7934234)
Complete name : H:\Фильмы\Otvazhnaya.2.720p.WEB-DLRip.MPEG-AVC.2019.Honey&Haseena.mkv
Format : Matroska
Format version : Version 4
File size : 4.46 GiB
Duration : 1 h 43 min
Overall bit rate : 6 177 kb/s
Encoded date : UTC 2020-02-12 04:50:31
Writing application : mkvmerge v8.3.0 ('Over the Horizon') 32bit
Writing library : libebml v1.3.1 + libmatroska v1.4.2 / Lavf58.12.100
Video
ID : 1
Format : AVC
Format/Info : Advanced Video Codec
Format profile : Main@L3.1
Format settings : CABAC / 3 Ref Frames
Format settings, CABAC : Yes
Format settings, Reference : 3 frames
Format settings, GOP : M=1, N=25
Codec ID : V_MPEG4/ISO/AVC
Duration : 1 h 43 min
Bit rate : 5 535 kb/s
Width : 1 280 pixels
Height : 544 pixels
Display aspect ratio : 2.35:1
Frame rate mode : Constant
Frame rate : 24.000 FPS
Color space : YUV
Chroma subsampling : 4:2:0
Bit depth : 8 bits
Scan type : Progressive
Bits/(Pixel*Frame) : 0.331
Stream size : 4.00 GiB (90%)
Default : Yes
Forced : No
Audio
ID : 2
Format : AC-3
Format/Info : Audio Coding 3
Commercial name : Dolby Digital
Codec ID : A_AC3
Duration : 1 h 43 min
Bit rate mode : Constant
Bit rate : 640 kb/s
Channel(s) : 6 channels
Channel layout : L R C LFE Ls Rs
Sampling rate : 48.0 kHz
Frame rate : 31.250 FPS (1536 SPF)
Compression mode : Lossy
Stream size : 473 MiB (10%)
Service kind : Complete Main
Default : Yes
Forced : No
Скриншоты:
[filmgrad.ru].t144283.torrent 
Torrent: Registered [ 2020-02-13 08:24 ] · E53D74C3A7C3258B1FFF4515426FE78F29E14B2F

Download .torrent

Download

12 KB

Status: checked
Completed: 1 times
Size: 4.46 GB
Оценка:  5 (Голосов: 1)
Поблагодарили: 0  Спасибо
terms.php
[Profile] [PM]
Display posts:    
Reply to topic

Current time is: 26-Feb 05:45

All times are UTC + 3



You cannot post new topics in this forum
You cannot reply to topics in this forum
You cannot edit your posts in this forum
You cannot delete your posts in this forum
You cannot vote in polls in this forum
You cannot attach files in this forum
You can download files in this forum