У нас без правил и рекламы

The Doors - Morrison Hotel (1970) 24 KT Gold, HDCD /2009, Audio Fidelity/ [WV|Lossless|image + .cue] <Rock>

Reply to topic
DL-List and Torrent activity
Size:  288 MB   |    Registered:  13 days   |    Completed:  0 times

Seeder not seen: Never

Leechers:  13  [  0 KB/s  ]   Show peers in full details
 
     
 
 
Author Message

dybrik13 ®

Gender: Male

Longevity: 1 year

Posts: 4468

Location: Киев

Post 12-Feb-2020 07:27

[Quote]

The Doors - Morrison Hotel- Жанр: Rock
Издание: Audio Fidelity ‎– AFZ 037
Продолжительность: 00:45:31
Кодек: WavPack
Битрейт: Lossless
Тип рипа: image + .cue
Наличие сканов в содержимом раздачи: Да (полный комплект)
Треклист:
01. Roadhouse Blues (04:02)
02. Waiting for the Sun (03:57)
03. You Make Me Real (02:51)
04. Peace Frog (02:48)
05. Blue Sunday (02:11)
06. Ship of Fools (03:10)
07. Land Ho! (04:08)
08. The Spy (04:14)
09. Queen of the Highway (02:45)
10. Indian Summer (02:34)
11. Maggie M'Gill (04:33)
12. Roadhouse Blues. Bonus Track (40Th Anniversary Remix) (04:09)
13. Waiting for the Sun. Bonus Track (40Th Anniversary Remix) (04:03)

О группе!

Состав группы:
Jim Morrison - вокал
Ray Manzarek - клавишные
Robbie Krieger - гитара, бас
John Densmore - ударные
В руках этих музыкантов рок-н-ролл и вся его магия всегда наполнялись жизнью и никогда не нуждались в какой-либо особой трактовке. Morrison Hotel — при всех его автобиографических отсылках, — тот самый альбом, который действительно является альбомом об Америке… И, пожалуй, нет никаких сомнений, что Отель — одно из самых великих достижений музыки 70-х годов...

Отчёт EAC&#58;

Exact Audio Copy V0.99 prebeta 5 from 4. May 2009
EAC extraction logfile from 1. September 2009, 20:15
The Doors / Morrison Hotel [Audio Fidelity AFZ 037]
Used drive : HL-DT-STDVDRAM GH22NS40 Adapter: 1 ID: 0
Read mode : Secure
Utilize accurate stream : Yes
Defeat audio cache : Yes
Make use of C2 pointers : No
Read offset correction : 667
Overread into Lead-In and Lead-Out : No
Fill up missing offset samples with silence : Yes
Delete leading and trailing silent blocks : No
Null samples used in CRC calculations : Yes
Used interface : Installed external ASPI interface
Used output format : Internal WAV Routines
Sample format : 44.100 Hz; 16 Bit; Stereo
TOC of the extracted CD
Track | Start | Length | Start sector | End sector
---------------------------------------------------------
1 | 0:00.00 | 4:02.53 | 0 | 18202
2 | 4:02.53 | 3:57.42 | 18203 | 36019
3 | 8:00.20 | 2:51.12 | 36020 | 48856
4 | 10:51.32 | 2:48.24 | 48857 | 61480
5 | 13:39.56 | 2:11.42 | 61481 | 71347
6 | 15:51.23 | 3:10.54 | 71348 | 85651
7 | 19:02.02 | 4:08.15 | 85652 | 104266
8 | 23:10.17 | 4:14.38 | 104267 | 123354
9 | 27:24.55 | 2:45.43 | 123355 | 135772
10 | 30:10.23 | 2:34.17 | 135773 | 147339
11 | 32:44.40 | 4:33.59 | 147340 | 167873
12 | 37:18.24 | 4:09.39 | 167874 | 186587
13 | 41:27.63 | 4:03.08 | 186588 | 204820
Range status and errors
Selected range
Filename C:The Doors - Morrison Hotel [Audio Fidelity AFZ 037].wav
Peak level 100.0 %
Range quality 100.0 %
Copy CRC B67F4110
Copy OK
No errors occurred
AccurateRip summary
Track 1 not present in database
Track 2 not present in database
Track 3 not present in database
Track 4 not present in database
Track 5 not present in database
Track 6 not present in database
Track 7 not present in database
Track 8 not present in database
Track 9 not present in database
Track 10 not present in database
Track 11 not present in database
Track 12 not present in database
Track 13 not present in database
None of the tracks are present in the AccurateRip database
End of status report
[filmgrad.ru].t144241.torrent 
Torrent: Registered [ 2020-02-12 07:27 ] · D4F5FD984588197A9ADF12CEED9D61A2571B0323

Download .torrent

Download

13 KB

Status: checked
Completed: 0 times
Size: 288 MB
Оценка:  5 (Голосов: 1)
Поблагодарили: 0  Спасибо
terms.php
[Profile] [PM]
Display posts:    
Reply to topic

Current time is: 26-Feb 00:40

All times are UTC + 3



You cannot post new topics in this forum
You cannot reply to topics in this forum
You cannot edit your posts in this forum
You cannot delete your posts in this forum
You cannot vote in polls in this forum
You cannot attach files in this forum
You can download files in this forum