У нас без правил и рекламы

История игрушек: Квадрология / Toy Story: Quadrilogy (Джон Лассетер, Эш Браннон, Ли Анкрич, Джош Кули) [1995-2019, Мультфильм, фэнтези, комедия, приключения, семейный, полнометражный, BDRip-HEVC 1080p] [DUB] [Лицензия]

Reply to topic
DL-List and Torrent activity
Size:  20.63 GB   |    Registered:  14 days   |    Completed:  1 time
Seeders:  21  [  0 KB/s  ]   Leechers:  23  [  0 KB/s  ]   Show peers in full details
 
     
 
 
Author Message

ZUBDOLGOPA ®

Gender: Male

Longevity: 2 months 11 days

Posts: 189

Location: Долгопрудный

Post 11-Feb-2020 10:29

[Quote]

-История игрушек: Квадрология / Toy Story: Quadrilogy-- --Жанр: мультфильм, фэнтези, комедия, приключения, семейный
Год выпуска: 1995 / 1999 / 2010 / 2019
Продолжительность: 01:21:04 / 01:32:25 / 01:43:03 / 01:40:07
Режиссёр: Джон Лассетер, Эш Браннон, Ли Анкрич, Джош Кули--Описание: Каждый ребенок верит, что когда он оставляет свои игрушки одни, они начинают заниматься своими делами. Этот мультипликационный фильм позволяет убедиться им в своей правоте. Основная идея фильма — каждая игрушка боится надоесть, стать забытой, замененной другой, так как весь смысл их существования — доставлять счастье своим хозяевам.…--

История игрушек / Toy Story (1995)


Год выхода: 1995
Страна / Студия: США / Pixar Animation Studios, Walt Disney Pictures
Жанр: мультфильм, фэнтези, комедия, приключения, семейный
Продолжительность: 01:21:04
Перевод: Дублированный (Лицензия)
Режиссер: Джон Лассетер
Описание: Каждый ребенок верит, что когда он оставляет свои игрушки одни, они начинают заниматься своими делами. Этот мультипликационный фильм позволяет убедиться им в своей правоте. Основная идея фильма — каждая игрушка боится надоесть, стать забытой, замененной другой, так как весь смысл их существования — доставлять счастье своим хозяевам.
Качество: BDRip 1080p
Видео: HEVC/H.265, 1920x1080, ~6180 Kbps
Аудио 1: AC3, 6 ch, 640 Kbps - Русский, дублированный
Аудио 2: AC3, 6 ch, 640 Kbps - Украинский, дублированный
Аудио 3: AC3, 6 ch, 640 Kbps - Английский
Субтитры: Русские (форсированные, полные), украинские (форсированные, полные), английские (полные, SDH)

Релиз от: Mr. Fox

Mediainfo

Общее
Уникальный идентификатор : 144133759274579160799499821573559490310 (0x6C6F26FD072D062722E474CE77331706)
Полное имя : R:Toy Story1. Toy Story (1995) BDRip 1080p [HEVC].mkv
Формат : Matroska
Версия формата : Version 4 / Version 2
Размер файла : 4,59 Гбайт
Продолжительность : 1 ч. 21 м.
Общий поток : 8103 Кбит/сек
Название фильма : Toy Story (1995)
Дата кодирования : UTC 2019-10-05 03:25:49
Программа кодирования : mkvmerge v37.0.0 ('Leave It') 64-bit
Библиотека кодирования : libebml v1.3.9 + libmatroska v1.5.2
Обложка : Yes
Attachments : cover.jpg
Видео
Идентификатор : 1
Формат : HEVC
Формат/Информация : High Efficiency Video Coding
Профиль формата : Main 10@L4.1@High
Идентификатор кодека : V_MPEGH/ISO/HEVC
Продолжительность : 1 ч. 21 м.
Битрейт : 6180 Кбит/сек
Ширина : 1920 пикселей
Высота : 1080 пикселей
Соотношение сторон : 16:9
Режим частоты кадров : Постоянный
Частота кадров : 23,976 (23976/1000) кадра/сек
Частота кадров в оригинале : 23,976 (24000/1001) кадра/сек
Цветовое пространство : YUV
Субдискретизация насыщенности : 4:2:0
Битовая глубина : 10 бит
Бит/(Пиксели*Кадры) : 0.124
Размер потока : 3,50 Гбайт (76%)
Библиотека кодирования : x265 3.1.2+1-76650bab70f9:[Windows][MSVC 1922][64 bit] 10bit
Настройки программы : cpuid=1111039 / frame-threads=3 / numa-pools=12 / wpp / no-pmode / no-pme / no-psnr / no-ssim / log-level=2 / input-csp=1 / input-res=1920x1080 / interlace=0 / total-frames=110933 / level-idc=41 / high-tier=1 / uhd-bd=0 / ref=5 / no-allow-non-conformance / no-repeat-headers / annexb / no-aud / no-hrd / info / hash=0 / no-temporal-layers / open-gop / min-keyint=23 / keyint=240 / gop-lookahead=0 / bframes=10 / b-adapt=2 / b-pyramid / bframe-bias=0 / rc-lookahead=60 / lookahead-slices=4 / scenecut=40 / radl=0 / no-splice / no-intra-refresh / ctu=32 / min-cu-size=8 / rect / amp / max-tu-size=32 / tu-inter-depth=4 / tu-intra-depth=4 / limit-tu=1 / rdoq-level=2 / dynamic-rd=0.00 / no-ssim-rd / signhide / no-tskip / nr-intra=0 / nr-inter=0 / no-constrained-intra / no-strong-intra-smoothing / max-merge=4 / limit-refs=2 / limit-modes / me=3 / subme=7 / merange=57 / temporal-mvp / weightp / weightb / no-analyze-src-pics / deblock=-3:-3 / no-sao / no-sao-non-deblock / rd=6 / no-early-skip / no-rskip / no-fast-intra / no-tskip-fast / no-cu-lossless / no-b-intra / no-splitrd-skip / rdpenalty=0 / psy-rd=2.00 / psy-rdoq=1.00 / no-rd-refine / no-lossless / cbqpoffs=0 / crqpoffs=0 / rc=crf / crf=19.5 / qcomp=0.70 / qpstep=4 / stats-write=0 / stats-read=0 / vbv-maxrate=50000 / vbv-bufsize=50000 / vbv-init=0.9 / crf-max=0.0 / crf-min=0.0 / ipratio=1.40 / pbratio=1.30 / aq-mode=1 / aq-strength=1.00 / no-cutree / zone-count=0 / no-strict-cbr / qg-size=32 / no-rc-grain / qpmax=69 / qpmin=0 / no-const-vbv / sar=1 / overscan=0 / videoformat=5 / range=0 / colorprim=1 / transfer=1 / colormatrix=1 / chromaloc=0 / display-window=0cll=0,0 / min-luma=0 / max-luma=1023 / log2-max-poc-lsb=8 / vui-timing-info / vui-hrd-info / slices=1 / no-opt-qp-pps / no-opt-ref-list-length-pps / no-multi-pass-opt-rps / scenecut-bias=0.05 / no-opt-cu-delta-qp / no-aq-motion / no-hdr / no-hdr-opt / no-dhdr10-opt / no-idr-recovery-sei / analysis-reuse-level=5 / scale-factor=0 / refine-intra=0 / refine-inter=0 / refine-mv=0 / refine-ctu-distortion=0 / no-limit-sao / ctu-info=0 / no-lowpass-dct / refine-analysis-type=0 / copy-pic=1 / max-ausize-factor=1.0 / no-dynamic-refine / no-single-sei / no-hevc-aq / no-svt / no-field / qp-adaptation-range=1.00
Default : Да
Forced : Нет
Цветовой диапазон : Limited
Основные цвета : BT.709
Характеристики трансфера : BT.709
Коэффициенты матрицы : BT.709
Аудио #1
Идентификатор : 2
Формат : AC-3
Формат/Информация : Audio Coding 3
Идентификатор кодека : A_AC3
Продолжительность : 1 ч. 21 м.
Вид битрейта : Постоянный
Битрейт : 640 Кбит/сек
Каналы : 6 каналов
Расположение каналов : Front: L C R, Side: L R, LFE
Частота : 48,0 КГц
Частота кадров : 31,250 кадров/сек (1536 SPF)
Битовая глубина : 16 бит
Метод сжатия : С потерями
Размер потока : 371 Мбайт (8%)
Заголовок : Дубляж - BD 3D
Язык : Russian
ServiceKind/ : Complete Main
Default : Да
Forced : Нет
Аудио #2
Идентификатор : 3
Формат : AC-3
Формат/Информация : Audio Coding 3
Идентификатор кодека : A_AC3
Продолжительность : 1 ч. 21 м.
Вид битрейта : Постоянный
Битрейт : 640 Кбит/сек
Каналы : 6 каналов
Расположение каналов : Front: L C R, Side: L R, LFE
Частота : 48,0 КГц
Частота кадров : 31,250 кадров/сек (1536 SPF)
Битовая глубина : 16 бит
Метод сжатия : С потерями
Размер потока : 371 Мбайт (8%)
Заголовок : Дубляж - BD CEE
Язык : Ukrainian
ServiceKind/ : Complete Main
Default : Нет
Forced : Нет
Аудио #3
Идентификатор : 4
Формат : AC-3
Формат/Информация : Audio Coding 3
Идентификатор кодека : A_AC3
Продолжительность : 1 ч. 21 м.
Вид битрейта : Постоянный
Битрейт : 640 Кбит/сек
Каналы : 6 каналов
Расположение каналов : Front: L C R, Side: L R, LFE
Частота : 48,0 КГц
Частота кадров : 31,250 кадров/сек (1536 SPF)
Битовая глубина : 16 бит
Метод сжатия : С потерями
Размер потока : 371 Мбайт (8%)
Заголовок : Original - BD 3D
Язык : English
ServiceKind/ : Complete Main
Default : Нет
Forced : Нет
Текст #1
Идентификатор : 5
Формат : UTF-8
Идентификатор кодека : S_TEXT/UTF8
Идентификатор кодека/Информация : UTF-8 Plain Text
Продолжительность : 1 ч. 16 м.
Битрейт : 0 бит/сек
ElementCount : 7
Размер потока : 244 байт (0%)
Заголовок : Форсированные
Язык : Russian
Default : Да
Forced : Нет
Текст #2
Идентификатор : 6
Формат : UTF-8
Идентификатор кодека : S_TEXT/UTF8
Идентификатор кодека/Информация : UTF-8 Plain Text
Продолжительность : 1 ч. 19 м.
Битрейт : 110 бит/сек
ElementCount : 1141
Размер потока : 64,3 Кбайт (0%)
Заголовок : Полные
Язык : Russian
Default : Нет
Forced : Нет
Текст #3
Идентификатор : 7
Формат : UTF-8
Идентификатор кодека : S_TEXT/UTF8
Идентификатор кодека/Информация : UTF-8 Plain Text
Продолжительность : 1 ч. 16 м.
Битрейт : 0 бит/сек
ElementCount : 10
Размер потока : 352 байт (0%)
Заголовок : Форсированные
Язык : Ukrainian
Default : Нет
Forced : Нет
Текст #4
Идентификатор : 8
Формат : UTF-8
Идентификатор кодека : S_TEXT/UTF8
Идентификатор кодека/Информация : UTF-8 Plain Text
Продолжительность : 1 ч. 18 м.
Битрейт : 106 бит/сек
ElementCount : 1137
Размер потока : 60,7 Кбайт (0%)
Заголовок : Полные
Язык : Ukrainian
Default : Нет
Forced : Нет
Текст #5
Идентификатор : 9
Формат : UTF-8
Идентификатор кодека : S_TEXT/UTF8
Идентификатор кодека/Информация : UTF-8 Plain Text
Продолжительность : 1 ч. 18 м.
Битрейт : 67 бит/сек
ElementCount : 1143
Размер потока : 38,6 Кбайт (0%)
Заголовок : Full
Язык : English
Default : Нет
Forced : Нет
Текст #6
Идентификатор : 10
Формат : UTF-8
Идентификатор кодека : S_TEXT/UTF8
Идентификатор кодека/Информация : UTF-8 Plain Text
Продолжительность : 1 ч. 18 м.
Битрейт : 82 бит/сек
ElementCount : 1387
Размер потока : 47,4 Кбайт (0%)
Заголовок : SDH
Язык : English
Default : Нет
Forced : Нет
Меню
00:00:00.000 : : 1. Шериф Вуди / Sheriff Woody
00:02:02.246 : : 2. Вступительные титры / Opening Credits
00:04:00.365 : : 3. На горизонте чисто / The Coast Is Clear
00:06:34.017 : : 4. Собрание / The Staff Meeting
00:09:19.267 : : 5. Разведотряд / Recon Plan Charlie
00:14:16.980 : : 6. Базз Лайтер, космический рейнджер / Buzz Lightyear, Space Ranger
00:20:10.250 : : 7. "Что-то странное" / Strange Things
00:22:17.210 : : 8. Вуди против Базза / Woody vs. Buzz
00:24:24.962 : : 9. Сид / Sid
00:26:01.226 : : 10. Кого выберет Энди? / Who Will Andy Pick?
00:29:28.932 : : 11. Базз уезжает / Buzz Hitches a Ride
00:30:09.348 : : 12. Потерян на заправке / Lost at the Gas Station
00:35:09.856 : : 13. "Планета пиццы" / Pizza Planet
00:39:25.403 : : 14. Дом Сида / Sid's House
00:42:59.534 : : 15. Опять у Энди / Back at Andy's
00:43:43.327 : : 16. Игра с Сидом / Playtime with Sid
00:46:25.699 : : 17. Реклама Базза Лайтера / The Buzz Lightyear Commercial
00:47:20.170 : : 18. "Я больше не полечу" / I Will Go Sailing No More
00:49:08.110 : : 19. Чай у Ханны / Hannah's Tea Party
00:51:08.523 : : 20. Из окна Сида в окно Энди / Sid's Window to Andy's Window
00:53:49.934 : : 21. "Большая" / The Big One
00:56:23.713 : : 22. Энди скучает по Вуди / Andy Misses Woody
00:57:14.764 : : 23. "Базз, мне без тебя не справиться" / Buzz, I Can't Do This Without You
01:01:41.072 : : 24. Вуди просит о помощи / Woody Asks for Help
01:02:50.099 : : 25. "Заводите лягушку" / Wind the Frog
01:04:49.092 : : 26. "Играй хорошо" / Play Nice!
01:07:58.657 : : 27. Погоня / The Chase
01:13:10.301 : : 28. Энергия ракеты / Rocket Power
01:15:40.077 : : 29. Рождество в новом доме Энди / Christmas in Andy's New House
01:17:08.372 : : 30. Финальные титры / End Credits

История игрушек 2 / Toy Story 2 (1999)


Год выхода: 1999
Страна / Студия: США / Pixar Animation Studios, Walt Disney Pictures
Жанр: мультфильм, фэнтези, комедия, приключения, семейный
Продолжительность: 01:32:25
Перевод: Дублированный (Лицензия)
Режиссер: Джон Лассетер, Эш Браннон, Ли Анкрич
Описание: Ковбой Вуди и другие игрушки мальчика по имени Энди продолжают жить, радуясь каждому дню. Но неожиданно все меняется, когда Вуди похищает коварный коллекционер. Оказывается, что Вуди — очень ценная игрушка из коллекции, за которую японский музей игрушек готов заплатить огромную сумму. В доме коллекционера он находит своих родственников. В это время игрушки во главе с Баззом Лайтером отправляются спасать Вуди.
Качество: BDRip 1080p
Видео: HEVC/H.265, 1920x1080, ~5374 Kbps
Аудио 1: AC3, 6 ch, 640 Kbps - Русский, дублированный
Аудио 2: AC3, 6 ch, 640 Kbps - Украинский, дублированный
Аудио 3: AC3, 6 ch, 640 Kbps - Английский
Субтитры: Русские (форсированные, полные), украинские (форсированные, полные), английские (полные, SDH)

Релиз от: Mr. Fox

Mediainfo

Общее
Уникальный идентификатор : 243910157596668653689342797963586503476 (0xB77F633B6DCDE4B958D6A46E5F910334)
Полное имя : R:Toy Story2. Toy Story 2 (1999) BDRip 1080p [HEVC].mkv
Формат : Matroska
Версия формата : Version 4 / Version 2
Размер файла : 4,71 Гбайт
Продолжительность : 1 ч. 32 м.
Общий поток : 7296 Кбит/сек
Название фильма : Toy Story 2 (1999)
Дата кодирования : UTC 2019-10-08 03:28:13
Программа кодирования : mkvmerge v37.0.0 ('Leave It') 64-bit
Библиотека кодирования : libebml v1.3.9 + libmatroska v1.5.2
Обложка : Yes
Attachments : cover.jpg
Видео
Идентификатор : 1
Формат : HEVC
Формат/Информация : High Efficiency Video Coding
Профиль формата : Main 10@L4.1@High
Идентификатор кодека : V_MPEGH/ISO/HEVC
Продолжительность : 1 ч. 32 м.
Битрейт : 5374 Кбит/сек
Ширина : 1920 пикселей
Высота : 1080 пикселей
Соотношение сторон : 16:9
Режим частоты кадров : Постоянный
Частота кадров : 23,976 (24000/1001) кадра/сек
Цветовое пространство : YUV
Субдискретизация насыщенности : 4:2:0
Битовая глубина : 10 бит
Бит/(Пиксели*Кадры) : 0.108
Размер потока : 3,47 Гбайт (74%)
Библиотека кодирования : x265 3.1.2+1-76650bab70f9:[Windows][MSVC 1922][64 bit] 10bit
Настройки программы : cpuid=1111039 / frame-threads=3 / numa-pools=12 / wpp / no-pmode / no-pme / no-psnr / no-ssim / log-level=2 / input-csp=1 / input-res=1920x1080 / interlace=0 / total-frames=132912 / level-idc=41 / high-tier=1 / uhd-bd=0 / ref=5 / no-allow-non-conformance / no-repeat-headers / annexb / no-aud / no-hrd / info / hash=0 / no-temporal-layers / open-gop / min-keyint=23 / keyint=240 / gop-lookahead=0 / bframes=9 / b-adapt=2 / b-pyramid / bframe-bias=0 / rc-lookahead=60 / lookahead-slices=4 / scenecut=40 / radl=0 / no-splice / no-intra-refresh / ctu=32 / min-cu-size=8 / rect / amp / max-tu-size=32 / tu-inter-depth=4 / tu-intra-depth=4 / limit-tu=1 / rdoq-level=2 / dynamic-rd=0.00 / no-ssim-rd / signhide / no-tskip / nr-intra=0 / nr-inter=0 / no-constrained-intra / no-strong-intra-smoothing / max-merge=4 / limit-refs=2 / limit-modes / me=3 / subme=7 / merange=57 / temporal-mvp / weightp / weightb / no-analyze-src-pics / deblock=-3:-3 / no-sao / no-sao-non-deblock / rd=6 / no-early-skip / no-rskip / no-fast-intra / no-tskip-fast / no-cu-lossless / no-b-intra / no-splitrd-skip / rdpenalty=0 / psy-rd=2.00 / psy-rdoq=1.00 / no-rd-refine / no-lossless / cbqpoffs=0 / crqpoffs=0 / rc=crf / crf=19.5 / qcomp=0.70 / qpstep=4 / stats-write=0 / stats-read=0 / vbv-maxrate=50000 / vbv-bufsize=50000 / vbv-init=0.9 / crf-max=0.0 / crf-min=0.0 / ipratio=1.40 / pbratio=1.30 / aq-mode=1 / aq-strength=1.00 / no-cutree / zone-count=0 / no-strict-cbr / qg-size=32 / no-rc-grain / qpmax=69 / qpmin=0 / no-const-vbv / sar=1 / overscan=0 / videoformat=5 / range=0 / colorprim=1 / transfer=1 / colormatrix=1 / chromaloc=0 / display-window=0cll=0,0 / min-luma=0 / max-luma=1023 / log2-max-poc-lsb=8 / vui-timing-info / vui-hrd-info / slices=1 / no-opt-qp-pps / no-opt-ref-list-length-pps / no-multi-pass-opt-rps / scenecut-bias=0.05 / no-opt-cu-delta-qp / no-aq-motion / no-hdr / no-hdr-opt / no-dhdr10-opt / no-idr-recovery-sei / analysis-reuse-level=5 / scale-factor=0 / refine-intra=0 / refine-inter=0 / refine-mv=0 / refine-ctu-distortion=0 / no-limit-sao / ctu-info=0 / no-lowpass-dct / refine-analysis-type=0 / copy-pic=1 / max-ausize-factor=1.0 / no-dynamic-refine / no-single-sei / no-hevc-aq / no-svt / no-field / qp-adaptation-range=1.00
Default : Да
Forced : Нет
Цветовой диапазон : Limited
Основные цвета : BT.709
Характеристики трансфера : BT.709
Коэффициенты матрицы : BT.709
Аудио #1
Идентификатор : 2
Формат : AC-3
Формат/Информация : Audio Coding 3
Идентификатор кодека : A_AC3
Продолжительность : 1 ч. 32 м.
Вид битрейта : Постоянный
Битрейт : 640 Кбит/сек
Каналы : 6 каналов
Расположение каналов : Front: L C R, Side: L R, LFE
Частота : 48,0 КГц
Частота кадров : 31,250 кадров/сек (1536 SPF)
Битовая глубина : 16 бит
Метод сжатия : С потерями
Размер потока : 423 Мбайт (9%)
Заголовок : Дубляж - BD 3D
Язык : Russian
ServiceKind/ : Complete Main
Default : Да
Forced : Нет
Аудио #2
Идентификатор : 3
Формат : AC-3
Формат/Информация : Audio Coding 3
Идентификатор кодека : A_AC3
Продолжительность : 1 ч. 32 м.
Вид битрейта : Постоянный
Битрейт : 640 Кбит/сек
Каналы : 6 каналов
Расположение каналов : Front: L C R, Side: L R, LFE
Частота : 48,0 КГц
Частота кадров : 31,250 кадров/сек (1536 SPF)
Битовая глубина : 16 бит
Метод сжатия : С потерями
Размер потока : 423 Мбайт (9%)
Заголовок : Дубляж - BD CEE
Язык : Ukrainian
ServiceKind/ : Complete Main
Default : Нет
Forced : Нет
Аудио #3
Идентификатор : 4
Формат : AC-3
Формат/Информация : Audio Coding 3
Идентификатор кодека : A_AC3
Продолжительность : 1 ч. 32 м.
Вид битрейта : Постоянный
Битрейт : 640 Кбит/сек
Каналы : 6 каналов
Расположение каналов : Front: L C R, Side: L R, LFE
Частота : 48,0 КГц
Частота кадров : 31,250 кадров/сек (1536 SPF)
Битовая глубина : 16 бит
Метод сжатия : С потерями
Размер потока : 423 Мбайт (9%)
Заголовок : Original - BD 3D
Язык : English
ServiceKind/ : Complete Main
Default : Нет
Forced : Нет
Текст #1
Идентификатор : 5
Формат : UTF-8
Идентификатор кодека : S_TEXT/UTF8
Идентификатор кодека/Информация : UTF-8 Plain Text
Продолжительность : 46 м. 46 с.
Битрейт : 0 бит/сек
ElementCount : 5
Размер потока : 189 байт (0%)
Заголовок : Forced
Язык : Russian
Default : Да
Forced : Нет
Текст #2
Идентификатор : 6
Формат : UTF-8
Идентификатор кодека : S_TEXT/UTF8
Идентификатор кодека/Информация : UTF-8 Plain Text
Продолжительность : 1 ч. 28 м.
Битрейт : 104 бит/сек
ElementCount : 1192
Размер потока : 68,2 Кбайт (0%)
Язык : Russian
Default : Нет
Forced : Нет
Текст #3
Идентификатор : 7
Формат : UTF-8
Идентификатор кодека : S_TEXT/UTF8
Идентификатор кодека/Информация : UTF-8 Plain Text
Продолжительность : 46 м. 46 с.
Битрейт : 0 бит/сек
ElementCount : 5
Размер потока : 173 байт (0%)
Заголовок : Forced
Язык : Ukrainian
Default : Нет
Forced : Нет
Текст #4
Идентификатор : 8
Формат : UTF-8
Идентификатор кодека : S_TEXT/UTF8
Идентификатор кодека/Информация : UTF-8 Plain Text
Продолжительность : 1 ч. 30 м.
Битрейт : 104 бит/сек
ElementCount : 1204
Размер потока : 69,1 Кбайт (0%)
Язык : Ukrainian
Default : Нет
Forced : Нет
Текст #5
Идентификатор : 9
Формат : UTF-8
Идентификатор кодека : S_TEXT/UTF8
Идентификатор кодека/Информация : UTF-8 Plain Text
Продолжительность : 1 ч. 28 м.
Битрейт : 63 бит/сек
ElementCount : 1191
Размер потока : 41,5 Кбайт (0%)
Заголовок : Full
Язык : English
Default : Нет
Forced : Нет
Текст #6
Идентификатор : 10
Формат : UTF-8
Идентификатор кодека : S_TEXT/UTF8
Идентификатор кодека/Информация : UTF-8 Plain Text
Продолжительность : 1 ч. 31 м.
Битрейт : 74 бит/сек
ElementCount : 1451
Размер потока : 49,9 Кбайт (0%)
Заголовок : SDH
Язык : English
Default : Нет
Forced : Нет
Меню
00:00:00.000 : : 1. Начало / Opening Titles
00:01:23.582 : : 2. Миссия Базза / Buzz's Mission
00:04:48.286 : : 3. Потерянная шляпа Вуди / Woody's Lost Hat
00:07:35.788 : : 4. Это Бастер! / It's Buster!
00:10:40.931 : : 5. Кошмар / The Nightmare
00:11:54.797 : : 6. Хрипун / Wheezy
00:12:47.099 : : 7. Распродажа / Yard Sale
00:15:29.927 : : 8. Похищен! / Kidnapped!
00:18:15.844 : : 9. Кто похитил Вуди? / Who Stole Woody?
00:20:17.590 : : 10. Тёплая компания из "Ранчо" / The Roundup Gang
00:24:14.035 : : 11. Операция "Спасение Вуди" / Operation Rescue Woody
00:25:54.385 : : 12. "Ранчо Вуди" / "Woody's Roundup"
00:30:32.121 : : 13. Вуди теряет руку / Woody Loses His Arm
00:31:48.448 : : 14. Речь Базза / Buzz's Speech
00:32:51.469 : : 15. Возвращение руки / Getting the Arm
00:36:44.994 : : 16. Переход через дорогу / Crossing the Road
00:39:09.137 : : 17. Реставратор / The Cleaner
00:39:53.056 : : 18. Амбар Игрушек Эла / Al's Toy Barn
00:41:06.338 : : 19. Реставрация Вуди / Woody's Restoration
00:42:26.210 : : 20. Переключатель Базза / Buzz Switch
00:44:41.344 : : 21. Отдел Барби / The Barbie Aisle
00:46:58.565 : : 22. История Джесси / Jessie's Story ("When She Loved Me")
00:53:23.949 : : 23. Игрушки находят Эла / The Toys Find Al
00:56:19.918 : : 24. В шахту! / Into the Vents
01:01:10.041 : : 25. Шериф Вуди / Sheriff Woody
01:02:14.271 : : 26. Спасём! / To the Rescue!
01:04:23.900 : : 27. Вуди остаётся / Woody Stays
01:08:00.409 : : 28. Вонючка Пит / Stinky Pete
01:09:52.186 : : 29. Битва с Зургом / Zurg Battle
01:12:27.466 : : 30. В аэропорт / To the Airport
01:14:58.493 : : 31. Вуди против Старателя / Woody vs. Prospector
01:17:28.310 : : 32. Спасение Джесси / Saving Jessie
01:19:46.280 : : 33. Взлёт / Takeoff!
01:21:35.806 : : 34. Добро пожаловать домой / Welcome Home
01:25:48.975 : : 35. Финальные титры / End Credits

История игрушек: Большой побег / Toy Story 3 (2010)


Год выхода: 2010
Страна / Студия: США / Pixar Animation Studios, Walt Disney Pictures
Жанр: мультфильм, фэнтези, комедия, приключения, семейный
Продолжительность: 01:43:03
Перевод: Дублированный (Лицензия)
Режиссер: Ли Анкрич
Описание: Энди почти 18 лет, ему остаётся 3 дня до отправки в колледж, в то время как его игрушки, в том числе Вуди и Базз Лайтер, гадают о своём будущем.Куда забросит их судьба? На чердак, на свалку или, может быть, в детский сад «Солнышко»? События развиваются в самом неожиданном направлении, и приключения полюбившихся героев продолжаются!
Качество: BDRip 1080p
Видео: HEVC/H.265, 1920x1080, ~5369 Kbps
Аудио 1: AC3, 6 ch, 640 Kbps - Русский, дублированный
Аудио 2: AC3, 6 ch, 640 Kbps - Украинский, дублированный
Аудио 3: AC3, 6 ch, 640 Kbps - Английский
Субтитры: Русские (форсированные, полные), украинские (форсированные, полные), английские (полные, SDH)

Релиз от: Mr. Fox

Mediainfo

Общее
Уникальный идентификатор : 309640679179001900755195741595694663494 (0xE8F2A02786BE508E11DF408EA6920746)
Полное имя : R:Toy Story3. Toy Story 3 (2010) BDRip 1080p [HEVC].mkv
Формат : Matroska
Версия формата : Version 4 / Version 2
Размер файла : 5,25 Гбайт
Продолжительность : 1 ч. 43 м.
Общий поток : 7292 Кбит/сек
Название фильма : Toy Story 3 (2010)
Дата кодирования : UTC 2019-10-08 14:26:12
Программа кодирования : mkvmerge v37.0.0 ('Leave It') 64-bit
Библиотека кодирования : libebml v1.3.9 + libmatroska v1.5.2
Обложка : Yes
Attachments : cover.jpg
Видео
Идентификатор : 1
Формат : HEVC
Формат/Информация : High Efficiency Video Coding
Профиль формата : Main 10@L4.1@High
Идентификатор кодека : V_MPEGH/ISO/HEVC
Продолжительность : 1 ч. 43 м.
Битрейт : 5369 Кбит/сек
Ширина : 1920 пикселей
Высота : 1080 пикселей
Соотношение сторон : 16:9
Режим частоты кадров : Постоянный
Частота кадров : 23,976 (23976/1000) кадра/сек
Частота кадров в оригинале : 23,976 (24000/1001) кадра/сек
Цветовое пространство : YUV
Субдискретизация насыщенности : 4:2:0
Битовая глубина : 10 бит
Бит/(Пиксели*Кадры) : 0.108
Размер потока : 3,86 Гбайт (74%)
Библиотека кодирования : x265 3.1.2+1-76650bab70f9:[Windows][MSVC 1922][64 bit] 10bit
Настройки программы : cpuid=1111039 / frame-threads=3 / numa-pools=12 / wpp / no-pmode / no-pme / no-psnr / no-ssim / log-level=2 / input-csp=1 / input-res=1920x1080 / interlace=0 / total-frames=148251 / level-idc=41 / high-tier=1 / uhd-bd=0 / ref=5 / no-allow-non-conformance / no-repeat-headers / annexb / no-aud / no-hrd / info / hash=0 / no-temporal-layers / open-gop / min-keyint=23 / keyint=240 / gop-lookahead=0 / bframes=8 / b-adapt=2 / b-pyramid / bframe-bias=0 / rc-lookahead=60 / lookahead-slices=4 / scenecut=40 / radl=0 / no-splice / no-intra-refresh / ctu=32 / min-cu-size=8 / rect / amp / max-tu-size=32 / tu-inter-depth=4 / tu-intra-depth=4 / limit-tu=1 / rdoq-level=2 / dynamic-rd=0.00 / no-ssim-rd / signhide / no-tskip / nr-intra=0 / nr-inter=0 / no-constrained-intra / no-strong-intra-smoothing / max-merge=4 / limit-refs=2 / limit-modes / me=3 / subme=7 / merange=57 / temporal-mvp / weightp / weightb / no-analyze-src-pics / deblock=-3:-3 / no-sao / no-sao-non-deblock / rd=6 / no-early-skip / no-rskip / no-fast-intra / no-tskip-fast / no-cu-lossless / no-b-intra / no-splitrd-skip / rdpenalty=0 / psy-rd=2.00 / psy-rdoq=1.00 / no-rd-refine / no-lossless / cbqpoffs=0 / crqpoffs=0 / rc=crf / crf=19.5 / qcomp=0.70 / qpstep=4 / stats-write=0 / stats-read=0 / vbv-maxrate=50000 / vbv-bufsize=50000 / vbv-init=0.9 / crf-max=0.0 / crf-min=0.0 / ipratio=1.40 / pbratio=1.30 / aq-mode=1 / aq-strength=1.00 / no-cutree / zone-count=0 / no-strict-cbr / qg-size=32 / no-rc-grain / qpmax=69 / qpmin=0 / no-const-vbv / sar=1 / overscan=0 / videoformat=5 / range=0 / colorprim=1 / transfer=1 / colormatrix=1 / chromaloc=0 / display-window=0cll=0,0 / min-luma=0 / max-luma=1023 / log2-max-poc-lsb=8 / vui-timing-info / vui-hrd-info / slices=1 / no-opt-qp-pps / no-opt-ref-list-length-pps / no-multi-pass-opt-rps / scenecut-bias=0.05 / no-opt-cu-delta-qp / no-aq-motion / no-hdr / no-hdr-opt / no-dhdr10-opt / no-idr-recovery-sei / analysis-reuse-level=5 / scale-factor=0 / refine-intra=0 / refine-inter=0 / refine-mv=0 / refine-ctu-distortion=0 / no-limit-sao / ctu-info=0 / no-lowpass-dct / refine-analysis-type=0 / copy-pic=1 / max-ausize-factor=1.0 / no-dynamic-refine / no-single-sei / no-hevc-aq / no-svt / no-field / qp-adaptation-range=1.00
Default : Да
Forced : Нет
Цветовой диапазон : Limited
Основные цвета : BT.709
Характеристики трансфера : BT.709
Коэффициенты матрицы : BT.709
Аудио #1
Идентификатор : 2
Формат : AC-3
Формат/Информация : Audio Coding 3
Идентификатор кодека : A_AC3
Продолжительность : 1 ч. 43 м.
Вид битрейта : Постоянный
Битрейт : 640 Кбит/сек
Каналы : 6 каналов
Расположение каналов : Front: L C R, Side: L R, LFE
Частота : 48,0 КГц
Частота кадров : 31,250 кадров/сек (1536 SPF)
Битовая глубина : 16 бит
Метод сжатия : С потерями
Размер потока : 472 Мбайт (9%)
Заголовок : Дубляж - BD 3D
Язык : Russian
ServiceKind/ : Complete Main
Default : Да
Forced : Нет
Аудио #2
Идентификатор : 3
Формат : AC-3
Формат/Информация : Audio Coding 3
Идентификатор кодека : A_AC3
Продолжительность : 1 ч. 43 м.
Вид битрейта : Постоянный
Битрейт : 640 Кбит/сек
Каналы : 6 каналов
Расположение каналов : Front: L C R, Side: L R, LFE
Частота : 48,0 КГц
Частота кадров : 31,250 кадров/сек (1536 SPF)
Битовая глубина : 16 бит
Метод сжатия : С потерями
Размер потока : 472 Мбайт (9%)
Заголовок : Дубляж - BD CEE
Язык : Ukrainian
ServiceKind/ : Complete Main
Default : Нет
Forced : Нет
Аудио #3
Идентификатор : 4
Формат : AC-3
Формат/Информация : Audio Coding 3
Идентификатор кодека : A_AC3
Продолжительность : 1 ч. 43 м.
Вид битрейта : Постоянный
Битрейт : 640 Кбит/сек
Каналы : 6 каналов
Расположение каналов : Front: L C R, Side: L R, LFE
Частота : 48,0 КГц
Частота кадров : 31,250 кадров/сек (1536 SPF)
Битовая глубина : 16 бит
Метод сжатия : С потерями
Размер потока : 472 Мбайт (9%)
Заголовок : Original - BD 3D
Язык : English
ServiceKind/ : Complete Main
Default : Нет
Forced : Нет
Текст #1
Идентификатор : 5
Формат : UTF-8
Идентификатор кодека : S_TEXT/UTF8
Идентификатор кодека/Информация : UTF-8 Plain Text
Продолжительность : 8 м. 46 с.
Битрейт : 14 бит/сек
ElementCount : 21
Размер потока : 942 байт (0%)
Заголовок : Форсированные
Язык : Russian
Default : Да
Forced : Нет
Текст #2
Идентификатор : 6
Формат : UTF-8
Идентификатор кодека : S_TEXT/UTF8
Идентификатор кодека/Информация : UTF-8 Plain Text
Продолжительность : 1 ч. 36 м.
Битрейт : 94 бит/сек
ElementCount : 1269
Размер потока : 66,5 Кбайт (0%)
Заголовок : Полные
Язык : Russian
Default : Нет
Forced : Нет
Текст #3
Идентификатор : 7
Формат : UTF-8
Идентификатор кодека : S_TEXT/UTF8
Идентификатор кодека/Информация : UTF-8 Plain Text
Продолжительность : 8 м. 46 с.
Битрейт : 14 бит/сек
ElementCount : 21
Размер потока : 936 байт (0%)
Заголовок : Форсированные
Язык : Ukrainian
Default : Нет
Forced : Нет
Текст #4
Идентификатор : 8
Формат : UTF-8
Идентификатор кодека : S_TEXT/UTF8
Идентификатор кодека/Информация : UTF-8 Plain Text
Продолжительность : 1 ч. 36 м.
Битрейт : 100 бит/сек
ElementCount : 1270
Размер потока : 70,9 Кбайт (0%)
Заголовок : Полные
Язык : Ukrainian
Default : Нет
Forced : Нет
Текст #5
Идентификатор : 9
Формат : UTF-8
Идентификатор кодека : S_TEXT/UTF8
Идентификатор кодека/Информация : UTF-8 Plain Text
Продолжительность : 8 м. 46 с.
Битрейт : 8 бит/сек
ElementCount : 21
Размер потока : 546 байт (0%)
Заголовок : Forced
Язык : English
Default : Нет
Forced : Нет
Текст #6
Идентификатор : 10
Формат : UTF-8
Идентификатор кодека : S_TEXT/UTF8
Идентификатор кодека/Информация : UTF-8 Plain Text
Продолжительность : 1 ч. 36 м.
Битрейт : 59 бит/сек
ElementCount : 1264
Размер потока : 42,0 Кбайт (0%)
Заголовок : Full
Язык : English
Default : Нет
Forced : Нет
Текст #7
Идентификатор : 11
Формат : UTF-8
Идентификатор кодека : S_TEXT/UTF8
Идентификатор кодека/Информация : UTF-8 Plain Text
Продолжительность : 1 ч. 36 м.
Битрейт : 68 бит/сек
ElementCount : 1569
Размер потока : 48,3 Кбайт (0%)
Заголовок : SDH
Язык : English
Default : Нет
Forced : Нет
Меню
00:00:00.000 : : 1. Приключение в стиле вестерн / Western Adventure
00:04:53.543 : : 2. Поиграем / Playtime
00:06:20.254 : : 3. Уже взрослый / Grown Up
00:11:37.403 : : 4. Сборы в колледж / College Packing
00:15:17.166 : : 5. Выброшенные / Thrown Away
00:18:34.195 : : 6. По дороге в детский сад / Going to Daycare
00:19:23.869 : : 7. Добро пожаловать в "Солнышко" / Sunnyside Welcome
00:26:17.116 : : 8. А как же Энди? / What About Andy?
00:28:59.403 : : 9. Вуди уходит / Woody Leaves
00:31:47.821 : : 10. Жёсткая игра / Rough Play
00:33:22.333 : : 11. Бонни / Bonnie
00:35:50.063 : : 12. Мы в ловушке! / We're Trapped!
00:37:30.121 : : 13. Игроки / Gambling Den
00:40:11.324 : : 14. Где же дом? / Where's Home?
00:41:12.635 : : 15. Предложение Лотсо / Lotso's Offer
00:43:37.489 : : 16. Я вижу Энди! / I See Andy!
00:44:49.268 : : 17. В клетке / Locked Up
00:48:19.521 : : 18. История Лотсо / Lotso's Story
00:52:28.061 : : 19. Рассвет / Daybreak
00:53:51.894 : : 20. Возвращение Вуди / Woody Returns
00:57:11.969 : : 21. Снова вместе / Reunited
00:58:20.704 : : 22. Побег из тюрьмы / Prison Break
01:01:09.998 : : 23. Гардероб Кена / Ken's Closet
01:02:06.639 : : 24. Тюремный бунт / Prison Riot
01:02:57.023 : : 25. Мистер Голова-Тортилья / Mr. Tortilla Head
01:06:35.032 : : 26. Испанский режим Базза / Spanish Buzz
01:11:21.734 : : 27. Попались / Caught
01:15:57.260 : : 28. Мусоровоз / Garbage Truck
01:17:35.817 : : 29. Свалка / The Dump
01:19:43.194 : : 30. Это конец / End of the Line
01:23:01.934 : : 31. Спасены / Safe and Sound
01:24:59.594 : : 32. Возвращение домой / Back Home
01:28:15.581 : : 33. Прощай, Энди / Goodbye, Andy
01:34:18.277 : : 34. Финальные титры / End Credits

История игрушек 4 / Toy Story 4 (2019)


Год выхода: 2019
Страна / Студия: США / Pixar Animation Studios, Walt Disney Pictures
Жанр: мультфильм, фэнтези, комедия, приключения, семейный
Продолжительность: 01:40:07
Перевод: Дублированный (Лицензия)
Режиссер: Джош Кули
Описание: Космический рейнджер Баз Лайтер, ковбой Вуди, собака Спиралька, тиранозавр Рекс и вся команда игрушек снова вместе, и они как никогда готовы к приключениям. С тех пор как Энди поступил в колледж, игрушки поселились в доме своей новой хозяйки Бонни. В свой первый день в школе Бонни смастерила себе из отходов новую игрушку Вилкинса, что положит начало череде событий, в которой найдется место и путешествиям с погонями, и знакомству с новыми игрушками, и встречам с некоторыми из старых друзей, и даже романтической истории.
Качество: BDRip 1080p
Видео: HEVC/H.265, 1920x804, ~7613 Kbps
Аудио 1: AC3, 6 ch, 448 Kbps - Русский, дублированный
Аудио 2: AC3, 6 ch, 640 Kbps - Английский
Субтитры: Русские (полные, SDH), английские

Релиз от: Mr. Fox

Mediainfo

Общее
Уникальный идентификатор : 157603166828692841489517618264037013401 (0x7691440D9A57281CA2FCC9DDC2D23799)
Полное имя : R:Toy Story (Quadrilogy)4. Toy Story 4 (2019) BDRip 1080p [HEVC] (1).mkv
Формат : Matroska
Версия формата : Version 4 / Version 2
Размер файла : 6,08 Гбайт
Продолжительность : 1 ч. 40 м.
Общий поток : 8704 Кбит/сек
Название фильма : Toy Story 4 (2019)
Дата кодирования : UTC 2019-10-21 06:13:00
Программа кодирования : mkvmerge v28.2.0 ('The Awakening') 64-bit
Библиотека кодирования : libebml v1.3.6 + libmatroska v1.4.9
Обложка : Yes
Attachments : cover.jpg
Видео
Идентификатор : 1
Формат : HEVC
Формат/Информация : High Efficiency Video Coding
Профиль формата : Main 10@L4.1@High
Идентификатор кодека : V_MPEGH/ISO/HEVC
Продолжительность : 1 ч. 40 м.
Битрейт : 7613 Кбит/сек
Ширина : 1920 пикселей
Высота : 804 пикселя
Соотношение сторон : 2,40:1
Режим частоты кадров : Постоянный
Частота кадров : 23,976 (24000/1001) кадра/сек
Цветовое пространство : YUV
Субдискретизация насыщенности : 4:2:0
Битовая глубина : 10 бит
Бит/(Пиксели*Кадры) : 0.206
Размер потока : 5,32 Гбайт (87%)
Библиотека кодирования : x265 3.1.2+1-76650bab70f9:[Windows][MSVC 1922][64 bit] 10bit
Настройки программы : cpuid=1111039 / frame-threads=3 / numa-pools=12 / wpp / no-pmode / no-pme / no-psnr / no-ssim / log-level=2 / input-csp=1 / input-res=1920x804 / interlace=0 / total-frames=134623 / level-idc=41 / high-tier=1 / uhd-bd=0 / ref=5 / no-allow-non-conformance / no-repeat-headers / annexb / no-aud / no-hrd / info / hash=0 / no-temporal-layers / open-gop / min-keyint=23 / keyint=240 / gop-lookahead=0 / bframes=13 / b-adapt=2 / b-pyramid / bframe-bias=0 / rc-lookahead=60 / lookahead-slices=4 / scenecut=40 / radl=0 / no-splice / no-intra-refresh / ctu=32 / min-cu-size=8 / rect / amp / max-tu-size=32 / tu-inter-depth=4 / tu-intra-depth=4 / limit-tu=1 / rdoq-level=2 / dynamic-rd=0.00 / no-ssim-rd / signhide / no-tskip / nr-intra=0 / nr-inter=0 / no-constrained-intra / no-strong-intra-smoothing / max-merge=4 / limit-refs=2 / limit-modes / me=3 / subme=7 / merange=57 / temporal-mvp / weightp / weightb / no-analyze-src-pics / deblock=-3:-3 / no-sao / no-sao-non-deblock / rd=6 / no-early-skip / no-rskip / no-fast-intra / no-tskip-fast / no-cu-lossless / no-b-intra / no-splitrd-skip / rdpenalty=0 / psy-rd=2.00 / psy-rdoq=1.00 / no-rd-refine / no-lossless / cbqpoffs=0 / crqpoffs=0 / rc=crf / crf=19.0 / qcomp=0.65 / qpstep=4 / stats-write=0 / stats-read=0 / vbv-maxrate=50000 / vbv-bufsize=50000 / vbv-init=0.9 / crf-max=0.0 / crf-min=0.0 / ipratio=1.40 / pbratio=1.30 / aq-mode=1 / aq-strength=1.00 / no-cutree / zone-count=0 / no-strict-cbr / qg-size=32 / no-rc-grain / qpmax=69 / qpmin=0 / no-const-vbv / sar=1 / overscan=0 / videoformat=5 / range=0 / colorprim=1 / transfer=1 / colormatrix=1 / chromaloc=0 / display-window=0cll=0,0 / min-luma=0 / max-luma=1023 / log2-max-poc-lsb=8 / vui-timing-info / vui-hrd-info / slices=1 / no-opt-qp-pps / no-opt-ref-list-length-pps / no-multi-pass-opt-rps / scenecut-bias=0.05 / no-opt-cu-delta-qp / no-aq-motion / no-hdr / no-hdr-opt / no-dhdr10-opt / no-idr-recovery-sei / analysis-reuse-level=5 / scale-factor=0 / refine-intra=0 / refine-inter=0 / refine-mv=0 / refine-ctu-distortion=0 / no-limit-sao / ctu-info=0 / no-lowpass-dct / refine-analysis-type=0 / copy-pic=1 / max-ausize-factor=1.0 / no-dynamic-refine / no-single-sei / no-hevc-aq / no-svt / no-field / qp-adaptation-range=1.00
Default : Да
Forced : Нет
Цветовой диапазон : Limited
Основные цвета : BT.709
Характеристики трансфера : BT.709
Коэффициенты матрицы : BT.709
Аудио #1
Идентификатор : 2
Формат : AC-3
Формат/Информация : Audio Coding 3
Идентификатор кодека : A_AC3
Продолжительность : 1 ч. 40 м.
Вид битрейта : Постоянный
Битрейт : 448 Кбит/сек
Каналы : 6 каналов
Расположение каналов : Front: L C R, Side: L R, LFE
Частота : 48,0 КГц
Частота кадров : 31,250 кадров/сек (1536 SPF)
Битовая глубина : 16 бит
Метод сжатия : С потерями
Размер потока : 321 Мбайт (5%)
Заголовок : DUB [License]
Язык : Russian
ServiceKind/ : Complete Main
Default : Да
Forced : Нет
Аудио #2
Идентификатор : 3
Формат : AC-3
Формат/Информация : Audio Coding 3
Идентификатор кодека : A_AC3
Продолжительность : 1 ч. 40 м.
Вид битрейта : Постоянный
Битрейт : 640 Кбит/сек
Каналы : 6 каналов
Расположение каналов : Front: L C R, Side: L R, LFE
Частота : 48,0 КГц
Частота кадров : 31,250 кадров/сек (1536 SPF)
Битовая глубина : 16 бит
Метод сжатия : С потерями
Размер потока : 458 Мбайт (7%)
Заголовок : Original
Язык : English
ServiceKind/ : Complete Main
Default : Нет
Forced : Нет
Текст #1
Идентификатор : 4
Формат : UTF-8
Идентификатор кодека : S_TEXT/UTF8
Идентификатор кодека/Информация : UTF-8 Plain Text
Продолжительность : 1 ч. 39 м.
Битрейт : 106 бит/сек
ElementCount : 1656
Размер потока : 77,2 Кбайт (0%)
Заголовок : Full
Язык : Russian
Default : Нет
Forced : Нет
Текст #2
Идентификатор : 5
Формат : UTF-8
Идентификатор кодека : S_TEXT/UTF8
Идентификатор кодека/Информация : UTF-8 Plain Text
Продолжительность : 1 ч. 39 м.
Битрейт : 121 бит/сек
ElementCount : 2039
Размер потока : 88,7 Кбайт (0%)
Заголовок : SDH
Язык : Russian
Default : Нет
Forced : Нет
Текст #3
Идентификатор : 6
Формат : UTF-8
Идентификатор кодека : S_TEXT/UTF8
Идентификатор кодека/Информация : UTF-8 Plain Text
Продолжительность : 1 ч. 39 м.
Битрейт : 65 бит/сек
ElementCount : 1806
Размер потока : 47,2 Кбайт (0%)
Заголовок : Full
Язык : English
Default : Нет
Forced : Нет
Меню
00:00:00.000 : en:Chapter 01
00:05:39.798 : en:Chapter 02
00:11:21.097 : en:Chapter 03
00:15:06.239 : en:Chapter 04
00:19:01.140 : en:Chapter 05
00:20:52.042 : en:Chapter 06
00:22:43.821 : en:Chapter 07
00:26:11.111 : en:Chapter 08
00:27:47.082 : en:Chapter 09
00:32:11.846 : en:Chapter 10
00:36:17.425 : en:Chapter 11
00:40:34.640 : en:Chapter 12
00:42:56.699 : en:Chapter 13
00:44:26.872 : en:Chapter 14
00:46:39.380 : en:Chapter 15
00:48:06.175 : en:Chapter 16
00:49:18.664 : en:Chapter 17
00:52:25.809 : en:Chapter 18
00:53:58.568 : en:Chapter 19
00:54:34.479 : en:Chapter 20
00:59:06.960 : en:Chapter 21
01:01:30.645 : en:Chapter 22
01:04:40.752 : en:Chapter 23
01:07:25.249 : en:Chapter 24
01:09:31.042 : en:Chapter 25
01:10:54.834 : en:Chapter 26
01:12:05.154 : en:Chapter 27
01:15:03.040 : en:Chapter 28
01:17:29.770 : en:Chapter 29
01:18:04.846 : en:Chapter 30
01:19:21.840 : en:Chapter 31
01:19:48.116 : en:Chapter 32
01:22:24.940 : en:Chapter 33
01:29:00.293 : en:Chapter 34
[filmgrad.ru].t144232.torrent 
 GOLD TORRENT! DOWNLOAD TRAFFIC DOES NOT CONSIDER! 
Torrent: Registered [ 2020-02-11 10:29 ] · C83888CCD2751F97C5A8C60E494D8F2B31E4353E

Download .torrent

Download

104 KB

Status: checked
Completed: 1 times
Size: 20.63 GB
Оценка:  5 (Голосов: 1)
Поблагодарили: 0  Спасибо
terms.php
[Profile] [PM]
Display posts:    
Reply to topic

Current time is: 26-Feb 01:08

All times are UTC + 3



You cannot post new topics in this forum
You cannot reply to topics in this forum
You cannot edit your posts in this forum
You cannot delete your posts in this forum
You cannot vote in polls in this forum
You cannot attach files in this forum
You can download files in this forum