Мухаммед Али (Когда мы были королями) / Moxammed Ali. When We Were Kings (1996) WEB-DL [H.264/1080p]

Reply to topic
DL-List and Torrent activity
Size:  9.26 GB   |    Registered:  9 months 1 day   |    Completed:  0 times
Seeders:  4  [  0 KB/s  ]   Leechers:  7  [  0 KB/s  ]   Show peers in full details
 
     
 
 
Author Message

dybrik13 ®

Gender: Male

Longevity: 1 year 5 months

Posts: 7120

Location: Киев

Post 11-Oct-2019 07:39

[Quote]

Мухаммед Али (Когда мы были королями) / Moxammed Ali. When We Were Kings- Производство: США, Das Films, David Sonenberg Production, PolyGram Filmed Entertainment
Жанр: Документальный, биография, спорт
Режиссер: Леон Гаст-Документальный фильм, рассказывающий о самом трудном поединке Мухаммеда Али против действительного тогда чемпиона в тяжёлой весовой категории Джорджа Формана, который состоялся в 1974 году в Киншаса (Заир) и вошедшего в историю под названием "Грохот в джунглях". После этого боя Али получил прозвище, которое, между прочим, он придумал себе сам - Величайший. Фильм наполнен интересными фактами, комментариями участников да и просто удивительными подробностями об этом бое и тех далеких и неспокойных временах. В 1997 году фильм получил Оскар от Американской киноакадемии за лучший полнометражный документальный фильм.
Продолжительность: 01:27:22
Качество видео: WEB-DL
Перевод: закадровый, профессиональный
Субтитры: Английские
Видео: AVC/H.264, 1920x1080, ~14,1 Mbps
Аудио#1: AC3, 2 ch, 192 Kbps | Русский (одноголосый, закадровый - VHS)
Аудио#2: AC3, 2 ch, 192 Kbps | Русский (двухголосый, закадровый - телеканал МАТЧ)
Аудио#3: E-AC3, 6 ch, 640 Kbps | Английский

Mediainfo:

Общее
Уникальный идентификатор : 254266122893308562077377151137254937942 (0xBF49DFBDF66263CBA75A07A39B0B1556)
Полное имя : F:\КИНО\When.We.Were.Kings.(1996).1080p.WEB-DL.2xRus.Eng-BLUEBIRD.mkv
Формат : Matroska
Версия формата : Version 4
Размер файла : 9,26 Гбайт
Продолжительность : 1 ч. 27 м.
Общий поток : 15,2 Мбит/сек
Название фильма : when.we.were.kings.1080p-trinity
Дата кодирования : UTC 2019-09-21 13:35:04
Программа кодирования : mkvmerge v8.0.0 ('Til The Day That I Die') 32bit
Библиотека кодирования : libebml v1.3.1 + libmatroska v1.4.2
Видео
Идентификатор : 1
Формат : AVC
Формат/Информация : Advanced Video Codec
Профиль формата : High@L4
Настройки формата : CABAC / 4 Ref Frames
Параметр CABAC формата : Да
Параметр RefFrames формата : 4 кадра
Идентификатор кодека : V_MPEG4/ISO/AVC
Продолжительность : 1 ч. 27 м.
Битрейт : 14,1 Мбит/сек
Ширина : 1920 пикселей
Высота : 1080 пикселей
Соотношение сторон : 16:9
Режим частоты кадров : Постоянный
Частота кадров : 23,976 (24000/1001) кадра/сек
Цветовое пространство : YUV
Субдискретизация насыщенности : 4:2:0
Битовая глубина : 8 бит
Тип развёртки : Прогрессивная
Бит/(Пиксели*Кадры) : 0.285
Размер потока : 8,63 Гбайт (93%)
Заголовок : MPEG-4 AVC Video / 14.1 Mbps / 1080p / 23.976 fps / 16:9 / High Profile 4
Язык : English
Default : Да
Forced : Нет
Цветовой диапазон : Limited
Основные цвета : BT.709
Характеристики трансфера : BT.709
Коэффициенты матрицы : BT.709
Аудио #1
Идентификатор : 2
Формат : AC-3
Формат/Информация : Audio Coding 3
Коммерческое название : Dolby Digital
Идентификатор кодека : A_AC3
Продолжительность : 1 ч. 27 м.
Вид битрейта : Постоянный
Битрейт : 192 Кбит/сек
Каналы : 2 канала
ChannelLayout : L R
Частота : 48,0 КГц
Частота кадров : 31,250 кадров/сек (1536 SPF)
Метод сжатия : С потерями
Размер потока : 120 Мбайт (1%)
Заголовок : rus (VHS) / AC3 / 2.0 / 48 kHz / 192 kbps / 16-bit
Язык : Russian
ServiceKind/String : Complete Main
Default : Да
Forced : Да
Аудио #2
Идентификатор : 3
Формат : AC-3
Формат/Информация : Audio Coding 3
Коммерческое название : Dolby Digital
Идентификатор кодека : A_AC3
Продолжительность : 1 ч. 27 м.
Вид битрейта : Постоянный
Битрейт : 192 Кбит/сек
Каналы : 2 канала
ChannelLayout : L R
Частота : 48,0 КГц
Частота кадров : 31,250 кадров/сек (1536 SPF)
Метод сжатия : С потерями
Размер потока : 120 Мбайт (1%)
Заголовок : rus (MATCH) / AC3 / 2.0 / 48 kHz / 192 kbps / 16-bit
Язык : Russian
ServiceKind/String : Complete Main
Default : Нет
Forced : Нет
Аудио #3
Идентификатор : 4
Формат : E-AC-3
Формат/Информация : Enhanced AC-3
Коммерческое название : Dolby Digital Plus
Идентификатор кодека : A_EAC3
Продолжительность : 1 ч. 27 м.
Вид битрейта : Постоянный
Битрейт : 640 Кбит/сек
Каналы : 6 каналов
ChannelLayout : L R C LFE Ls Rs
Частота : 48,0 КГц
Частота кадров : 31,250 кадров/сек (1536 SPF)
Метод сжатия : С потерями
Размер потока : 400 Мбайт (4%)
Заголовок : eng / E-AC3 / 5.1 / 48 kHz / 640 kbps / 16-bit
Язык : English
ServiceKind/String : Complete Main
Default : Нет
Forced : Нет
Текст
Идентификатор : 5
Формат : UTF-8
Идентификатор кодека : S_TEXT/UTF8
Идентификатор кодека/Информация : UTF-8 Plain Text
Продолжительность : 1 ч. 26 м.
Битрейт : 110 бит/сек
ElementCount : 1756
Размер потока : 70,3 Кбайт (0%)
Заголовок : eng / SRT
Язык : English
Default : Нет
Forced : Нет
Скриншоты:
[filmgrad.ru].t137921.torrent 
 GOLD TORRENT! DOWNLOAD TRAFFIC DOES NOT CONSIDER! 
Torrent: Registered [ 2019-10-11 07:39 ] · 0D057BB3B08E9917E627A182CEE84470CF784772

Download .torrent

Download

47 KB

Status: checked
Completed: 0 times
Size: 9.26 GB
Оценка:  5 (Голосов: 1)
Поблагодарили: 0  Спасибо
terms.php
[Profile] [PM]
Display posts:    
Reply to topic

Current time is: 12-Jul 09:25

All times are UTC + 3



You cannot post new topics in this forum
You cannot reply to topics in this forum
You cannot edit your posts in this forum
You cannot delete your posts in this forum
You cannot vote in polls in this forum
You cannot attach files in this forum
You can download files in this forum