Red Hot Chili Peppers • Rock in Rio [2019, Alternative Rock, Funk Rock, HDTV, 1080i]

Reply to topic
DL-List and Torrent activity
Size:  10.64 GB   |    Registered:  7 months 27 days   |    Completed:  0 times
Seeders:  16  [  0 KB/s  ]   Leechers:  5  [  0 KB/s  ]   Show peers in full details
 
     
 
 
Author Message

dybrik13 ®

Gender: Male

Longevity: 1 year 4 months

Posts: 6626

Location: Киев

Post 04-Oct-2019 19:15

[Quote]


Red Hot Chili Peppers


Жанр: Alternative Rock, Funk Rock
Продолжительность: 01:56:30
Год выпуска: October 3, 2019
Качество: HDTV
Разрешение видео/развертка: 1080i
Контейнер: TS
Видео кодек: H.264
Аудио кодек: AC3
Видео: MPEG4 Video (H264) 1920x1080 29.97fps 12.0 Mb/s
Аудио: Dolby AC3 48000Hz 6ch 384kbps

Треклист

Intro Jam
Can't Stop
The Zephyr Song
Dark Necessities
Dani California
Hey
I Wanna Be Your Dog (The Stooges cover)
Right on Time
The Adventures of Rain Dance Maggie
Pea
Sikamikanico (live debut, gift to Josh for his birthday)
Go Robot
Californication
What Is Soul? (Funkadelic cover)
Just What I Needed (The Cars cover)
Aeroplane
The Power of Equality (dedicated to the Amazon rainforest)
Soul to Squeeze
By the Way-Encore:
I Don't Wanna Grow Up (Tom Waits cover) (Josh solo)
Goodbye Angels
Give It Away

Отчёт MediaInfo / BDInfo

General
ID : 1 (0x1)
Complete name : F:\Rock in Rio 2019\Red Hot Chili Peppers - Rock in Rio 2019.ts
Format : MPEG-TS
File size : 10.6 GiB
Duration : 1 h 56 min
Overall bit rate mode : Variable
Overall bit rate : 13.1 Mb/s
Video
ID : 1328 (0x530)
Menu ID : 1336 (0x538)
Format : AVC
Format/Info : Advanced Video Codec
Format profile : High@L4
Format settings : CABAC / 4 Ref Frames
Format settings, CABAC : Yes
Format settings, Reference fra : 4 frames
Codec ID : 27
Duration : 1 h 56 min
Bit rate : 12.0 Mb/s
Width : 1 920 pixels
Height : 1 080 pixels
Display aspect ratio : 16:9
Frame rate : 29.970 (30000/1001) FPS
Color space : YUV
Chroma subsampling : 4:2:0
Bit depth : 8 bits
Scan type : MBAFF
Scan type, store method : Interleaved fields
Scan order : Top Field First
Bits/(Pixel*Frame) : 0.194
Stream size : 9.80 GiB (92%)
Audio
ID : 1329 (0x531)
Menu ID : 1336 (0x538)
Format : AC-3
Format/Info : Audio Coding 3
Commercial name : Dolby Digital
Codec ID : 129
Duration : 1 h 56 min
Bit rate mode : Constant
Bit rate : 384 kb/s
Channel(s) : 6 channels
Channel layout : L R C LFE Ls Rs
Sampling rate : 48.0 kHz
Frame rate : 31.250 FPS (1536 SPF)
Bit depth : 16 bits
Compression mode : Lossy
Stream size : 320 MiB (3%)
Language : English
Service kind : Complete Main
[filmgrad.ru].t137711.torrent 
 SILVER TORRENT! DOWNLOAD TRAFFIC PARTIALLY CONSIDERED! 
Torrent: Registered [ 2019-10-04 19:15 ] · 0FC0249C7FF0EED11EBE0DA42F02C75B52B6BC7E

Download .torrent

Download

27 KB

Status: checked
Completed: 0 times
Size: 10.64 GB
Оценка:  5 (Голосов: 1)
Поблагодарили: 0  Спасибо
terms.php
[Profile] [PM]
Display posts:    
Reply to topic

Current time is: 01-Jun 05:14

All times are UTC + 3



You cannot post new topics in this forum
You cannot reply to topics in this forum
You cannot edit your posts in this forum
You cannot delete your posts in this forum
You cannot vote in polls in this forum
You cannot attach files in this forum
You can download files in this forum